Торрент файл
скачать торрент магнет ссылка Добавлен: 29 июл 2012, 22:50
Размер: 4.32 ГБ
Сидеров: 4
Личеров: 4
Автор

СообщениеДобавлено: 29 июл 2012, 22:50 

Не в сети
Аватара пользователя
Дата регистрации:
28 ноя 2010, 22:22
Спасибо: 722 / 5
Сообщения: 2030
Полярный экспресс / The Polar Express
Год выпуска: 2004
Страна: США
Жанр: Приключения, Семейный, Фэнтези
Продолжительность: 1:40
Перевод: Профессиональный (дублированный)
Русские субтитры: есть
Режиссер на русском: Роберт Земекис
Режиссер на английском: Robert Zemeckis
В ролях: Том Хэнкс, Майкл Джитер, Нона Гей, Питер Сколари, Эдди Дизен, Лесли Хартер Земекис, Чарльз Флайшер, Джош Эли, Марк Мендонка, Роландас Хендрикс...
Описание: Необыкновенная история о маленьком мальчике, который верит в Санта Клауса, несмотря на то, что все друзья и вся семья в один голос утверждают, что это всего лишь сказка. И однажды искренняя вера мальчика вознаграждается. В канун Рождества у его дома останавливается волшебный поезд "Полярный экспресс" и уносит мальчика в чудесное незабываемое путешествие в гости к Санта Клаусу. И пока Рождественская ночь опускается на спящий мир, пассажиры "Полярного экспресса" мчатся на Северный Полюс, встречая на своем пути приключения и опасности, подстерегающие их в темных лесах, зловещих горах и ледяной мгле...
Качество: DVD5
Контейнер: DVD-Video
Формат 3D: Анаглиф red-cyan
Видео кодек: Mpeg2
Аудио кодек: AC3
Видео: PAL 16:9 (720x576)@1024x576 VBR
Аудио: Russian (Dolby AC3, 6 ch)
Аудио 2: English (Dolby AC3, 6 ch)
MediaInfo
General
Complete name : E:\Видео\Полярный экспресс\VIDEO_TS\VTS_01_4.VOB
Format : MPEG-PS
File size : 1 024 MiB
Duration : 23mn 53s
Overall bit rate : 5 992 Kbps
Video
ID : 224 (0xE0)
Format : MPEG Video
Format version : Version 2
Format profile : [email protected]
Format settings, BVOP : Yes
Format settings, Matrix : Default
Format settings, GOP : M=3, N=12
Duration : 23mn 53s
Bit rate mode : Variable
Bit rate : 4 209 Kbps
Nominal bit rate : 8 160 Kbps
Width : 720 pixels
Height : 480 pixels
Display aspect ratio : 16:9
Frame rate : 23.976 fps
Standard : NTSC
Color space : YUV
Chroma subsampling : 4:2:0
Bit depth : 8 bits
Scan type : Progressive
Scan order : 2:3 Pulldown
Compression mode : Lossy
Bits/(Pixel*Frame) : 0.508
Stream size : 719 MiB (70%)
Audio #1
ID : 189 (0xBD)-128 (0x80)
Format : AC-3
Format/Info : Audio Coding 3
Mode extension : CM (complete main)
Muxing mode : DVD-Video
Duration : 23mn 53s
Bit rate mode : Constant
Bit rate : 384 Kbps
Channel(s) : 6 channels
Channel positions : Front: L C R, Side: L R, LFE
Sampling rate : 48.0 KHz
Bit depth : 16 bits
Compression mode : Lossy
Delay relative to video : -182ms
Stream size : 65.6 MiB (6%)
Audio #2
ID : 189 (0xBD)-129 (0x81)
Format : AC-3
Format/Info : Audio Coding 3
Mode extension : CM (complete main)
Muxing mode : DVD-Video
Duration : 23mn 53s
Bit rate mode : Constant
Bit rate : 384 Kbps
Channel(s) : 6 channels
Channel positions : Front: L C R, Side: L R, LFE
Sampling rate : 48.0 KHz
Bit depth : 16 bits
Compression mode : Lossy
Delay relative to video : -182ms
Stream size : 65.6 MiB (6%)
Audio #3
ID : 189 (0xBD)-130 (0x82)
Format : AC-3
Format/Info : Audio Coding 3
Mode extension : CM (complete main)
Muxing mode : DVD-Video
Duration : 23mn 53s
Bit rate mode : Constant
Bit rate : 448 Kbps
Channel(s) : 6 channels
Channel positions : Front: L C R, Side: L R, LFE
Sampling rate : 48.0 KHz
Bit depth : 16 bits
Compression mode : Lossy
Delay relative to video : -182ms
Stream size : 76.6 MiB (7%)
Audio #4
ID : 189 (0xBD)-131 (0x83)
Format : AC-3
Format/Info : Audio Coding 3
Mode extension : CM (complete main)
Muxing mode : DVD-Video
Duration : 23mn 53s
Bit rate mode : Constant
Bit rate : 448 Kbps
Channel(s) : 6 channels
Channel positions : Front: L C R, Side: L R, LFE
Sampling rate : 48.0 KHz
Bit depth : 16 bits
Compression mode : Lossy
Delay relative to video : -182ms
Stream size : 76.6 MiB (7%)
Text
ID : 189 (0xBD)-34 (0x22)
Format : RLE
Format/Info : Run-length encoding
Muxing mode : DVD-Video
Delay relative to video : 1s 345ms
Скриншоты






Вернуться к началу
 Профиль Отправить личное сообщение  
 
   Похожие торренты   Автор   Торрент   Размер 
В этой теме нет новых непрочитанных сообщений. Полярный экспресс / The Polar Express [Мультфильм, фэнтези, приключения, 2004] BDRip-AVC, Dub

salma3

83 | 15

746.26 МБ

В этой теме нет новых непрочитанных сообщений. Союзники / Allied (Роберт Земекис / Robert Zemeckis) [2016г., боевик, триллер, драма, мелодрама, военный, WEB-DLRip] MVO

Alfredovich

0 | 0

1.46 ГБ

В этой теме нет новых непрочитанных сообщений. Шанхайский экспресс / Экспресс миллионеров / Foo gwai lit che / Shanghai Express / Millionaires Express [Боевые искусства, комедия, вестерн, 1986] DVD5, Avo+Mvo

salma3

32 | 5

3.96 ГБ

В этой теме нет новых непрочитанных сообщений. Экспресс Фон Райана / Von Ryan's Express [боевик, приключения, военный, 1965] HDRip, Mvo

salma3

26 | 10

1.45 ГБ

В этой теме нет новых непрочитанных сообщений. Прогулка / The Walk (Роберт Земекис) [триллер, драма, приключения, биография, 2015] WEB-DL 720, dub [iTunes]

Dracon

158 | 4

3.8 ГБ

В этой теме нет новых непрочитанных сообщений. Полярные приключения / Polar Adventure [Мультфильм, комедия, приключения, семейный, 2015] WEB-DLRip, dUB [iTunes]

salma3

217 | 74

1.46 ГБ

В этой теме нет новых непрочитанных сообщений. Полярные приключения / Polar Adventure [Мультфильм, комедия, приключения, семейный, 2015] WEB-DLRip, dUB [iTunes]

salma3

176 | 17

744.81 МБ


Начать новую тему Ответить на тему  [ 1 сообщение ] 




Для Мосгорсуда, Роскомнадзора и рекламодателей:: mosgorsud-torrent[собачка]yandex.ru
cron