Торрент файл
скачать торрент магнет ссылка Добавлен: 29 июл 2012, 22:50
Размер: 12.42 ГБ
Сидеров: 15
Личеров: 6
Автор

СообщениеДобавлено: 29 июл 2012, 22:50 

Не в сети
Аватара пользователя
Дата регистрации:
28 ноя 2010, 22:22
Спасибо: 722 / 5
Сообщения: 2030

Смурфики / The SmurfsГод выпуска: 2011
Страна: США (Columbia Pictures, Sony Pictures Animation, Kerner Entertainment Company)
Жанр: Фэнтези, Комедия, Приключения, Семейный
Продолжительность: 01:42:42
Перевод: Профессиональный (дублированный) - Русский и Украинский
Русские субтитры: нет
Режиссер: Раджа Госнелл / Raja Gosnell
Роли исполняли, озвучивали / Дублировали:Папа - Джонатан Уинтерс / Сергей Паршин
Смельчак - Алан Камминг / Борис Хасанов
Смурфетта - Кэти Перри / Нюша (Шурочкина)
Умник - Фред Армизен / Александр Новиков
Ворчун - Джордж Лопез / Станислав Никольский
Растяпа - Антон Ельчин / Евгений Березкин
Гаргамель - Хэнк Азария / Станислав Концевич
Патрик Уинслоу - Нил Патрик Харрис / Александр Майоров
Грэйс Уинслоу - Джейма Мейс / Наталья Виноградова
Одиль - София Вергара / Светлана Кузнецова
Анри - Тим Ганн / Виктор Костецкий
Рассказчик - Том Кэйн / Армен Джигарханян
Описание: Спасаясь от злого волшебника Гаргамеля, крошечные смурфики оказываются за пределами родной деревни. Из своего волшебного мира они попадают прямиком в наш мир, а именно в Центральный парк города Нью-Йорк. Теперь маленьким отважным смурфикам предстоит отыскать дорогу домой и не попасть в лапы Гаргамеля.

Премьера: 11 июля 2011 / 11 августа 2011
Бюджет: $110 000 000
Кассовые сборы: $563 750 323

Проверено на встроенном плейере ТВ Samsung UE-C7000

Качество: BDrip
Контейнер: MKV
Формат 3D: Half OverUnder / Вертикальная анаморфная стереопара
Порядок ракурсов: левый ракурс первый
Видео кодек: x264
Аудио кодек: AC3
Видео: AVC / 23,976 fps / 1920х1080p / 15.0 Mbps
Аудио:
#1 - Русский / AC3 / 48 KHz / 5.1 ch / 640 Kbps
#2 - Украинский / AC3 / 48 KHz / 5.1 ch / 640 Kbps
#3 - Английский / AC3 / 48 KHz / 5.1 ch / 640 Kbps
Субтитры: Отсутствуют
MediaInfo
General
UniqueID : 253741261936673738293238086389539881893 (0xBEE4CA1955240737B082CC53721543A5)
Complete name : F:\Downloads\TheSmurfs(3D)2011.halfOU(Ash61).mkv
Format : Matroska
File size : 12.4 GiB
Duration : 1h 42mn
Overall bit rate : 17.3 Mbps
Movie name : The Smurfs (3D) 2011 (by Ash61)
Encoded date : UTC 2012-06-14 08:16:26
Writing application : mkvmerge v3.4.0 ('Rapunzel') сборка от May 15 2010 09:38:20
Writing library : libebml v0.8.0 + libmatroska v0.9.0
Video
ID : 1
Format : AVC
Format/Info : Advanced Video Codec
Format profile : [email protected]
Format settings, CABAC : Yes
Format settings, ReFrames : 4 frames
Codec ID : V_MPEG4/ISO/AVC
Duration : 1h 42mn
Bit rate : 15.0 Mbps
Width : 1 920 pixels
Height : 1 080 pixels
Display aspect ratio : 16:9
Frame rate : 23.976 fps
Color space : YUV
Chroma subsampling : 4:2:0
Bit depth : 8 bits
Scan type : Progressive
Bits/(Pixel*Frame) : 0.303
Stream size : 10.8 GiB (87%)
Title : BDrip by Ash61
Writing library : x264 core 119 r2106 07efeb4
Encoding settings : cabac=1 / ref=4 / deblock=1:-3:-3 / analyse=0x3:0x113 / me=umh / subme=9 / psy=1 / psy_rd=1.00:0.15 / mixed_ref=1 / me_range=16 / chroma_me=1 / trellis=2 / 8x8dct=1 / cqm=0 / deadzone=21,11 / fast_pskip=1 / chroma_qp_offset=-3 / threads=3 / sliced_threads=0 / nr=0 / decimate=1 / interlaced=0 / bluray_compat=0 / constrained_intra=0 / bframes=6 / b_pyramid=2 / b_adapt=2 / b_bias=0 / direct=3 / weightb=1 / open_gop=0 / weightp=2 / keyint=250 / keyint_min=23 / scenecut=40 / intra_refresh=0 / rc_lookahead=60 / rc=crf / mbtree=1 / crf=17.0 / qcomp=0.70 / qpmin=0 / qpmax=69 / qpstep=4 / vbv_maxrate=40000 / vbv_bufsize=40000 / crf_max=0.0 / nal_hrd=none / frame-packing=4 / ip_ratio=1.40 / aq=1:0.70
Audio #1
ID : 2
Format : AC-3
Format/Info : Audio Coding 3
Mode extension : CM (complete main)
Codec ID : A_AC3
Duration : 1h 42mn
Bit rate mode : Constant
Bit rate : 640 Kbps
Channel(s) : 6 channels
Channel positions : Front: L C R, Side: L R, LFE
Sampling rate : 48.0 KHz
Bit depth : 16 bits
Compression mode : Lossy
Stream size : 470 MiB (4%)
Title : Дубляж
Language : Russian
Audio #2
ID : 3
Format : AC-3
Format/Info : Audio Coding 3
Mode extension : CM (complete main)
Codec ID : A_AC3
Duration : 1h 42mn
Bit rate mode : Constant
Bit rate : 640 Kbps
Channel(s) : 6 channels
Channel positions : Front: L C R, Side: L R, LFE
Sampling rate : 48.0 KHz
Bit depth : 16 bits
Compression mode : Lossy
Stream size : 470 MiB (4%)
Title : Дубляж
Language : Ukrainian
Audio #3
ID : 4
Format : AC-3
Format/Info : Audio Coding 3
Mode extension : CM (complete main)
Codec ID : A_AC3
Duration : 1h 42mn
Bit rate mode : Constant
Bit rate : 640 Kbps
Channel(s) : 6 channels
Channel positions : Front: L C R, Side: L R, LFE
Sampling rate : 48.0 KHz
Bit depth : 16 bits
Compression mode : Lossy
Stream size : 470 MiB (4%)
Title : Original
Language : English
Menu
00:00:00.000 : :1
00:04:48.705 : :2
00:11:22.265 : :3
00:16:17.894 : :4
00:21:10.436 : :5
00:26:33.300 : :6
00:33:15.076 : :7
00:39:43.131 : :8
00:46:04.971 : :9
00:53:22.950 : :10
00:59:28.440 : :11
01:07:26.876 : :12
01:15:08.963 : :13
01:22:27.734 : :14
01:28:31.431 : :15
01:34:21.489 : :16
Скриншоты
Cover & Labels



Вернуться к началу
 Профиль Отправить личное сообщение  
 
   Похожие торренты   Автор   Торрент   Размер 
В этой теме нет новых непрочитанных сообщений. Смурфики / The Smurfs [Мультфильм, фэнтези, семейный, 2011] UHD BDRemux 2160p, Dub [Лицензия]

salma3

0 | 0

51.11 ГБ

В этой теме нет новых непрочитанных сообщений. Смурфики 2 / The Smurfs 2 [мультфильм, фэнтези, комедия, 2013] BDRip 2160p, Dub

salma3

2 | 3

34.61 ГБ

В этой теме нет новых непрочитанных сообщений. Смурфики: Затерянная деревня / Smurfs: The Lost Village [Мультфильм, фэнтези, комедия, 2017] BDRip, Dub [Лицензия]

salma3

721 | 56

1.46 ГБ

В этой теме нет новых непрочитанных сообщений. Смурфики: Затерянная деревня / Smurfs: The Lost Village [Мультфильм, фэнтези, комедия, 2017] BDRip 720p, Dub [Лицензия]

salma3

68 | 15

6.18 ГБ

В этой теме нет новых непрочитанных сообщений. Смурфики: Затерянная деревня / Smurfs: The Lost Village [Мультфильм, фэнтези, комедия, 2017] BDRip 1080p, Dub [3D-Video] [iTunes]

salma3

85 | 48

7.26 ГБ

В этой теме нет новых непрочитанных сообщений. Смурфики: Затерянная деревня / Smurfs: The Lost Village [мультфильм, фэнтези, комедия, 2017] TS, Dub

salma3

3253 | 303

1.37 ГБ

В этой теме нет новых непрочитанных сообщений. Смурфики: Затерянная деревня / Smurfs: The Lost Village [мультфильм, фэнтези, комедия, 2017] Blu-Ray CEE 1080p, Dub [Лицензия]

salma3

6 | 22

32.78 ГБ


Начать новую тему Ответить на тему  [ 1 сообщение ] 




Для Мосгорсуда, Роскомнадзора и рекламодателей:: mosgorsud-torrent[собачка]yandex.ru
cron
cron