Торрент файл
скачать торрент магнет ссылка Добавлен: 29 июл 2012, 22:48
Размер: 7.69 ГБ
Сидеров: 133
Личеров: 30
Автор

СообщениеДобавлено: 29 июл 2012, 22:48 

Не в сети
Аватара пользователя
Дата регистрации:
28 ноя 2010, 22:22
Спасибо: 722 / 5
Сообщения: 2030


Рапунцель: Запутанная историяTangled
Год выпуска: 2010
Страна: США (Walt Disney Pictures)
Жанр: Мультфильм, Комедия, Мелодрама, Мюзикл, Семейный
Продолжительность: 01:40:54
Перевод: Профессиональный (дублированный) Русский и Украинский
Русские субтитры: есть
Режиссеры: Нэйтан Грено, Байрон Ховард / Nathan Greno, Byron Howard

Роли дублировали / озвучивали:..............
..............
Рапунцель - Виктория Дайнеко / Мэнди Мур
Флинн Райдер - Григорий Антипенко (Андрей Бирин - вокал) / Закари Левай
Матушка Готель - Мария Кац / Донна Мерфи
Братья Стэббингтон - Арман Хачатрян / Рон Перлман
Капитан стражи - Денис Некрасов / М. К. Гейни
Головорез Большой Нос - Антон Эльдаров / Джефри Тэмбор
Головорез Крюк - Владимир Майсурадзе / Брэд Гэррет
Влад - Антон Батырев / Ричард Кил

Описание: Обаятельный разбойник Флинн путешествует по жизни с легкостью, лишь потому, что он красив, болтлив и удачлив. И, казалось, фортуна всегда на его стороне, пока однажды он не выбирает высокую башню в густой чаще леса в качестве «спокойного» убежища. Флинн оказывается связанным по рукам и ногам юной красавицей по имени Рапунцель.
Если вы думаете, что самое интересное в ней — это 21 метр волшебных золотистых волос, то вы заблуждаетесь! Запертая в башне и отчаянно ищущая приключений, Рапунцель решает использовать Флинна в качестве билета в большой мир. Сначала комичное похищение, затем невинный шантаж — и вот наши герои на воле. Вместе с главными героями в авантюрное путешествие отправятся бравый конь-ищейка Максимус, ручной хамелеон и шайка сумасбродных разбойников.
Доп. информация: После английских финальных титров добавлены русские.

Премьера: 24 ноября 2010
Бюджет: $260 000 000
Кассовые сборы: $590 721 936
DVD в США: $101 985 528

Проверено на встроенном плейере ТВ Samsung UE-C7000

Качество: BDrip
Контейнер: MKV
Формат 3D: Half OverUnder / Вертикальная анаморфная стереопара
Порядок ракурсов: левый ракурс первый
Видео кодек: x264
Аудио кодек: AC3
Видео: AVC / 23,976 fps / 1920х1080p / 8 764 Kbps
Аудио:
#1: Русский / AC3 / 48 KHz / 5.1 ch / 640 Kbps
#2: Украинский / AC3 / 48 KHz / 5.1 ch / 640 Kbps
#3: Английский / AC3 / 48 KHz / 5.1 ch / 640 Kbps
Субтитры вшитые softsub SRT полные:
#1 - Русские
#2 - Украинские
#3 - English
MediaInfo
General
UniqueID : 188247075182349358808579617658806903562 (0x8D9F1162230B98B4A6D6C636671AA30A)
Complete name : F:\Downloads\Tangled(3D)2010.halfOU(Ash61).mkv
Format : Matroska
File size : 7.69 GiB
Duration : 1h 40mn
Overall bit rate : 10.9 Mbps
Movie name : Tangled (Рапунцель: Запутанная история) (3D) 2010 (Ash61)
Encoded date : UTC 2012-05-15 19:35:38
Writing application : mkvmerge v3.4.0 ('Rapunzel') сборка от May 15 2010 09:38:20
Writing library : libebml v0.8.0 + libmatroska v0.9.0
Video
ID : 1
Format : AVC
Format/Info : Advanced Video Codec
Format profile : [email protected]
Format settings, CABAC : Yes
Format settings, ReFrames : 4 frames
Codec ID : V_MPEG4/ISO/AVC
Duration : 1h 40mn
Bit rate : 8 764 Kbps
Width : 1 920 pixels
Height : 1 080 pixels
Display aspect ratio : 16:9
Frame rate : 23.976 fps
Color space : YUV
Chroma subsampling : 4:2:0
Bit depth : 8 bits
Scan type : Progressive
Bits/(Pixel*Frame) : 0.176
Stream size : 6.18 GiB (80%)
Title : BDrip by Ash61 (Добавил русские финальные титры)
Writing library : x264 core 119 r2106 07efeb4
Encoding settings : cabac=1 / ref=4 / deblock=1:-3:-3 / analyse=0x3:0x113 / me=umh / subme=9 / psy=1 / psy_rd=1.00:0.15 / mixed_ref=1 / me_range=16 / chroma_me=1 / trellis=2 / 8x8dct=1 / cqm=0 / deadzone=21,11 / fast_pskip=1 / chroma_qp_offset=-3 / threads=3 / sliced_threads=0 / nr=0 / decimate=1 / interlaced=0 / bluray_compat=0 / constrained_intra=0 / bframes=6 / b_pyramid=2 / b_adapt=2 / b_bias=0 / direct=3 / weightb=1 / open_gop=0 / weightp=2 / keyint=250 / keyint_min=23 / scenecut=40 / intra_refresh=0 / rc_lookahead=60 / rc=crf / mbtree=1 / crf=16.0 / qcomp=0.70 / qpmin=0 / qpmax=69 / qpstep=4 / vbv_maxrate=40000 / vbv_bufsize=40000 / crf_max=0.0 / nal_hrd=none / frame-packing=4 / ip_ratio=1.40 / aq=1:0.70
Audio #1
ID : 2
Format : AC-3
Format/Info : Audio Coding 3
Mode extension : CM (complete main)
Codec ID : A_AC3
Duration : 1h 40mn
Bit rate mode : Constant
Bit rate : 640 Kbps
Channel(s) : 6 channels
Channel positions : Front: L C R, Side: L R, LFE
Sampling rate : 48.0 KHz
Bit depth : 16 bits
Compression mode : Lossy
Stream size : 462 MiB (6%)
Title : Дубляж
Language : Russian
Audio #2
ID : 3
Format : AC-3
Format/Info : Audio Coding 3
Mode extension : CM (complete main)
Codec ID : A_AC3
Duration : 1h 40mn
Bit rate mode : Constant
Bit rate : 640 Kbps
Channel(s) : 6 channels
Channel positions : Front: L C R, Side: L R, LFE
Sampling rate : 48.0 KHz
Bit depth : 16 bits
Compression mode : Lossy
Stream size : 462 MiB (6%)
Title : Дубляж
Language : Ukrainian
Audio #3
ID : 4
Format : AC-3
Format/Info : Audio Coding 3
Mode extension : CM (complete main)
Codec ID : A_AC3
Duration : 1h 40mn
Bit rate mode : Constant
Bit rate : 640 Kbps
Channel(s) : 6 channels
Channel positions : Front: L C R, Side: L R, LFE
Sampling rate : 48.0 KHz
Bit depth : 16 bits
Compression mode : Lossy
Stream size : 462 MiB (6%)
Title : Original
Language : English
Text #1
ID : 5
Format : UTF-8
Codec ID : S_TEXT/UTF8
Codec ID/Info : UTF-8 Plain Text
Language : Russian
Text #2
ID : 6
Format : UTF-8
Codec ID : S_TEXT/UTF8
Codec ID/Info : UTF-8 Plain Text
Language : Ukrainian
Text #3
ID : 7
Format : UTF-8
Codec ID : S_TEXT/UTF8
Codec ID/Info : UTF-8 Plain Text
Language : English
Menu
00:00:00.000 : :The Lost Princess
00:08:20.291 : :Mother Knows Best
00:15:42.608 : :Meet Flynn Rider
00:24:40.562 : :Making A Deal
00:34:41.496 : :The Snuggly Duckling
00:42:30.214 : :The Escape
00:50:25.272 : :In The Woods
00:59:21.266 : :The Best Day Of Your Life
01:10:34.981 : :Betrayed
01:19:22.758 : :The Rescue
01:25:21.366 : :New Dream
01:31:20.225 : :End Credits
Скриншоты




Вернуться к началу
 Профиль Отправить личное сообщение  
 
   Похожие торренты   Автор   Торрент   Размер 
В этой теме нет новых непрочитанных сообщений. Зверополис / Zootopia (Байрон Ховард, Рич Мур, Джаред Буш) [2016, мультфильм, боевик, комедия, криминал, приключения, семейный, BDRip 720p | Лицензия] Dub

marya111

342 | 11

3.32 ГБ

В этой теме нет новых непрочитанных сообщений. Зверополис / Zootopia (Байрон Ховард, Рич Мур, Джаред Буш) [2016, мультфильм, боевик, комедия, криминал, приключения, семейный, HDRip | Лицензия] Dub

marya111

2173 | 80

1.45 ГБ

В этой теме нет новых непрочитанных сообщений. Зверополис / Zootopia [2D/3D] [USA Transfer] (Байрон Ховард, Рич Мур, Джаред Буш) [2016, мультфильм, боевик, комедия, криминал, приключения, семейный, BD Remux 2D/3D 1080p] DUB [iTunes]

marya111

17 | 6

32.5 ГБ

В этой теме нет новых непрочитанных сообщений. Тролли / Trolls (мультфильм, мюзикл, фэнтези, комедия, приключения, семейный, 2016) BDRip-AVC от R.G.Resident | iTunes

marya111

299 | 37

2.11 ГБ

В этой теме нет новых непрочитанных сообщений. Тролли / Trolls (мультфильм, мюзикл, фэнтези, комедия, приключения, семейный, 2016) BDRip от ExKinoRay | iTunes

marya111

190 | 47

1.42 ГБ

В этой теме нет новых непрочитанных сообщений. Моана / Moana (Мультфильм, мюзикл, фэнтези, комедия, приключения, семейный, полнометражный, 2016) BDRip-AVC от OlLanDGroup | iTunes Russia

marya111

423 | 79

745.69 МБ

В этой теме нет новых непрочитанных сообщений. Хан Соло: Звёздные Войны. Истории / Solo: A Star Wars Story (Рон Ховард / Ron Howard) [2018г., фантастика, TS] Dub

Alfredovich

596 | 160

1.37 ГБ


Начать новую тему Ответить на тему  [ 1 сообщение ] 




Для Мосгорсуда, Роскомнадзора и рекламодателей:: mosgorsud-torrent[собачка]yandex.ru
cron