Торрент файл
скачать торрент магнет ссылка Добавлен: 29 июл 2012, 22:46
Размер: 6.13 ГБ
Сидеров: 43
Личеров: 6
Автор

СообщениеДобавлено: 29 июл 2012, 22:46 

Не в сети
Аватара пользователя
Дата регистрации:
28 ноя 2010, 22:22
Спасибо: 722 / 5
Сообщения: 2030

Кoроль Лeв / The Liоn КingГод выпуска: 1994 (2011)
Страна: США (Walt Disney Pictures)
Жанр: Мультфильм, Мюзикл, Драма, Комедия, Приключения, Семейный
Продолжительность: 01:28:49
Перевод: Профессиональный (дублированный) - Русский и Украинский (+ DVO, + AVO)
Русские субтитры: нет
Режиссеры: Роджер Аллерс, Роб Минкофф / Roger Allers, Rob Minkoff
Роли озвучивали / Дублировали:Симба (взрослый) - Мэттью Бродерик / Евгений Иванов
Шрам - Джереми Айронс / Юрий Лазарев
Тимон - Натан Лейн / Сергей Дьячков, Сергей Савченко (вокал)
Пумба - Эрни Сабелла / Раф Кашапов, Андрей Шамин (вокал)
Муфаса - Джеймс Эрл Джонс / Валерий Никитенко
Нала (взрослая) - Мойра Келли / Татьяна Михалевкина
Зазу - Роуэн Эткинсон / Георгий Корольчук
Шензи - Вупи Голдберг / Татьяна Рассказова
Банзай - Чич Марин / Валерий Захарьев
Рафики - Роберт Гийом / Игорь Шибанов
Сараби - Мэдж Синклер / Александра Кожевникова
Описание: У величественного Короля-Льва Муфасы рождается наследник по имени Симба. Уже в детстве любознательный малыш становится жертвой интриг своего завистливого дяди Шрама, мечтающего о власти.
Симба познаёт горе утраты, предательство и изгнание, но в конце концов обретает верных друзей и находит любимую. Закалённый испытаниями, он в нелёгкой борьбе отвоёвывает своё законное место в «Круге жизни», осознав, что значит быть настоящим Королём.

Премьера: 15 июня 1994 / 22 марта 2012
Бюджет: $45 000 000
Кассовые сборы: $951 583 777

Проверено на встроенном плейере ТВ Samsung UE-C7000

Качество: BDrip
Контейнер: MKV
Формат 3D: Half OverUnder / Вертикальная анаморфная стереопара
Порядок ракурсов: левый ракурс первый
Видео кодек: x264
Аудио кодек: AC3
Видео: AVC / 23,976 fps / 1920х1080p / 6667 Kbps
Аудио:
#1 - Русский / AC3 / 48 KHz / 5.1 ch / 640 Kbps (Дубляж - BD 3D CEE)
#2 - Русский / AC3 / 48 KHz / 5.1 ch / 640 Kbps (DVO - Петр Гланц и Татьяна Казакова)
#3 - Русский / AC3 / 48 KHz / 5.1 ch / 448 Kbps (AVO - Андрей Гаврилов (ранний))
#4 - Украинский / AC3 / 48 KHz / 5.1 ch / 640 Kbps (Дубляж - BD 2D)
#5 - Английский / AC3 / 48 KHz / 5.1 ch / 640 Kbps
Субтитры: Отсутствуют
MediaInfo
General
UniqueID : 226757200056690403922422489856560654651 (0xAA97D921A2369C30BE8A73524388E93B)
Complete name : F:\Downloads\TheLionKing(3D)1994-2011.halfOU(Ash61).mkv
Format : Matroska
File size : 6.13 GiB
Duration : 1h 28mn
Overall bit rate : 9 871 Kbps
Movie name : The Lion King (3D) 1994/2011 (by Ash61)
Encoded date : UTC 2012-06-28 13:21:47
Writing application : mkvmerge v3.4.0 ('Rapunzel') сборка от May 15 2010 09:38:20
Writing library : libebml v0.8.0 + libmatroska v0.9.0
Video
ID : 1
Format : AVC
Format/Info : Advanced Video Codec
Format profile : [email protected]
Format settings, CABAC : Yes
Format settings, ReFrames : 4 frames
Codec ID : V_MPEG4/ISO/AVC
Duration : 1h 28mn
Bit rate : 6 667 Kbps
Width : 1 920 pixels
Height : 1 080 pixels
Display aspect ratio : 16:9
Frame rate : 23.976 fps
Color space : YUV
Chroma subsampling : 4:2:0
Bit depth : 8 bits
Scan type : Progressive
Bits/(Pixel*Frame) : 0.134
Stream size : 4.14 GiB (68%)
Title : BDrip by Ash61
Writing library : x264 core 119 r2106 07efeb4
Encoding settings : cabac=1 / ref=4 / deblock=1:-3:-3 / analyse=0x3:0x113 / me=umh / subme=9 / psy=1 / psy_rd=1.00:0.15 / mixed_ref=1 / me_range=16 / chroma_me=1 / trellis=2 / 8x8dct=1 / cqm=0 / deadzone=21,11 / fast_pskip=1 / chroma_qp_offset=-3 / threads=3 / sliced_threads=0 / nr=0 / decimate=1 / interlaced=0 / bluray_compat=0 / constrained_intra=0 / bframes=6 / b_pyramid=2 / b_adapt=2 / b_bias=0 / direct=3 / weightb=1 / open_gop=0 / weightp=2 / keyint=250 / keyint_min=23 / scenecut=40 / intra_refresh=0 / rc_lookahead=60 / rc=crf / mbtree=1 / crf=17.0 / qcomp=0.70 / qpmin=0 / qpmax=69 / qpstep=4 / vbv_maxrate=40000 / vbv_bufsize=40000 / crf_max=0.0 / nal_hrd=none / frame-packing=4 / ip_ratio=1.40 / aq=1:0.70
Language : English
Audio #1
ID : 2
Format : AC-3
Format/Info : Audio Coding 3
Mode extension : CM (complete main)
Codec ID : A_AC3
Duration : 1h 28mn
Bit rate mode : Constant
Bit rate : 640 Kbps
Channel(s) : 6 channels
Channel positions : Front: L C R, Side: L R, LFE
Sampling rate : 48.0 KHz
Bit depth : 16 bits
Compression mode : Lossy
Stream size : 407 MiB (6%)
Title : Дубляж
Language : Russian
Audio #2
ID : 3
Format : AC-3
Format/Info : Audio Coding 3
Mode extension : CM (complete main)
Codec ID : A_AC3
Duration : 1h 28mn
Bit rate mode : Constant
Bit rate : 640 Kbps
Channel(s) : 6 channels
Channel positions : Front: L C R, Side: L R, LFE
Sampling rate : 48.0 KHz
Bit depth : 16 bits
Compression mode : Lossy
Stream size : 407 MiB (6%)
Title : DVO - П.Гланц и Н.Казакова
Language : Russian
Audio #3
ID : 4
Format : AC-3
Format/Info : Audio Coding 3
Mode extension : CM (complete main)
Codec ID : A_AC3
Duration : 1h 28mn
Bit rate mode : Constant
Bit rate : 448 Kbps
Channel(s) : 6 channels
Channel positions : Front: L C R, Side: L R, LFE
Sampling rate : 48.0 KHz
Bit depth : 16 bits
Compression mode : Lossy
Stream size : 285 MiB (5%)
Title : AVO - А.Гаврилов (ранний)
Language : Russian
Audio #4
ID : 5
Format : AC-3
Format/Info : Audio Coding 3
Mode extension : CM (complete main)
Codec ID : A_AC3
Duration : 1h 28mn
Bit rate mode : Constant
Bit rate : 640 Kbps
Channel(s) : 6 channels
Channel positions : Front: L C R, Side: L R, LFE
Sampling rate : 48.0 KHz
Bit depth : 16 bits
Compression mode : Lossy
Stream size : 407 MiB (6%)
Title : Дубляж (edited by ash61 без перекодирования)
Language : Ukrainian
Audio #5
ID : 6
Format : AC-3
Format/Info : Audio Coding 3
Mode extension : CM (complete main)
Codec ID : A_AC3
Duration : 1h 28mn
Bit rate mode : Constant
Bit rate : 640 Kbps
Channel(s) : 6 channels
Channel positions : Front: L C R, Side: L R, LFE
Sampling rate : 48.0 KHz
Bit depth : 16 bits
Compression mode : Lossy
Stream size : 407 MiB (6%)
Title : Original
Language : English
Menu
00:00:00.000 : en:1. Circle of Life
00:05:00.592 : en:2. Scar
00:08:30.927 : en:3. Father and Son/"Morning Report"
00:11:49.500 : en:4. Uncle Scar
00:14:30.078 : en:5. "I Just Can't Wait to be King"
00:18:11.549 : en:6. Elephant Graveyard
00:23:15.269 : en:7. Under the Stars
00:25:56.638 : en:8. "Be Prepared"
00:30:44.718 : en:9. Stampede
00:36:12.670 : en:10. The King is Dead
00:40:34.599 : en:11. Scar Takes Over
00:41:34.951 : en:12. Timon and Pumbaa
00:44:37.466 : en:13. "Hakuna Matata"
00:48:41.085 : en:14. Scar in Command
00:50:27.733 : en:15. Pumbaa and Timon Wax Philosophical
00:53:35.295 : en:16. Nala and Simba Reunite
00:58:11.363 : en:17. "Can You Feel the Love Tonight"
01:01:17.090 : en:18. Trouble in Paradise
01:02:52.852 : en:19. He Lives in You
01:09:10.146 : en:20. Simba Returns
01:13:01.544 : en:21. Simba Confronts Scar
01:17:02.827 : en:22. The Fight
01:21:05.652 : en:23. Simba Ascends
01:23:44.394 : en:24. End Credits
Скриншоты
Cover & Labels




Вернуться к началу
 Профиль Отправить личное сообщение  
 
   Похожие торренты   Автор   Торрент   Размер 
В этой теме нет новых непрочитанных сообщений. Тролли / Trolls (мультфильм, мюзикл, фэнтези, комедия, приключения, семейный, 2016) BDRip-AVC от R.G.Resident | iTunes

marya111

299 | 37

2.11 ГБ

В этой теме нет новых непрочитанных сообщений. Тролли / Trolls (мультфильм, мюзикл, фэнтези, комедия, приключения, семейный, 2016) BDRip от ExKinoRay | iTunes

marya111

190 | 47

1.42 ГБ

В этой теме нет новых непрочитанных сообщений. Моана / Moana (Мультфильм, мюзикл, фэнтези, комедия, приключения, семейный, полнометражный, 2016) BDRip-AVC от OlLanDGroup | iTunes Russia

marya111

423 | 79

745.69 МБ

В этой теме нет новых непрочитанных сообщений. Приключения олененка Рудольфа / Rudolph, the Red-Nosed Reindeer [мультфильм, мюзикл, фэнтези, приключения, семейный, 1964] BDRip 1080p, Mvo

salma3

7 | 4

3.62 ГБ

В этой теме нет новых непрочитанных сообщений. Моана / Moana (мультфильм, мюзикл, фэнтези, комедия, приключения, семейный, 2016) TS | D

marya111

3946 | 438

1.37 ГБ

В этой теме нет новых непрочитанных сообщений. Тролли / Trolls (мультфильм, мюзикл, фэнтези, комедия, приключения, семейный, 2016) WEB-DLRip от Scarabey | iTunes

marya111

6588 | 946

1.45 ГБ

В этой теме нет новых непрочитанных сообщений. Тролли / Trolls (Мультфильм, мюзикл, фэнтези, комедия, приключения, семейный, 2016) BDRemux 1080p от ExKinoRay | iTunes

marya111

55 | 38

20.33 ГБ


Начать новую тему Ответить на тему  [ 1 сообщение ] 




Для Мосгорсуда, Роскомнадзора и рекламодателей:: mosgorsud-torrent[собачка]yandex.ru
cron