Торрент файл
скачать торрент магнет ссылка Добавлен: 29 июл 2012, 22:43
Размер: 5.22 ГБ
Сидеров: 13
Личеров: 8
Автор

СообщениеДобавлено: 29 июл 2012, 22:43 

Не в сети
Аватара пользователя
Дата регистрации:
28 ноя 2010, 22:22
Спасибо: 722 / 5
Сообщения: 2030
Монстр в ПарижеUn monstre à ParisA Monster in Paris
Год выпуска: 2011
Страна: Франция (Europa Corp., Bibo Films...)
Жанр: Мультфильм, Фэнтези, Приключения, Музыка
Продолжительность: 01:29:59
Перевод: Профессиональный (дублированный)
Русские субтитры: есть
Режиссер: Бибо Бержерон / Bibo Bergeron
.Роли дублировали (озвучивали):Люсилль - Ирина Киреева (Ванесса Паради)
Франсуа - (Матье Шедид)
Рауль - Василий Дахненко (Гад Эльмалех)
Эмиль - Диомид Виноградов (Себастьян Дежу)
Префект Мэйнот - Владимир Антоник (Франсуа Клюзе)
Мод - Василиса Воронина (Людивин Санье)
Инспектор Пате - Никита Прозоровский (Филип Петью)
Мадам Карлотта - Екатерина Африкантова (Жюли Ферье)
Альбер - Андрей Чижов (Бруно Саломон)
..........
Описание: Париж. 1910 год. Ужасный монстр, напоминающий гигантское насекомое, нагоняет страх на всю Францию. Застенчивый киномеханик и неутомимый изобретатель начинают охоту на него. В этой погоне они знакомятся со звездой кабаре, сумасшедшим ученым и его умной обезьянкой и, наконец, самим монстром, который оказывается совсем не страшным. Теперь безобидное, как блоха, чудовище ищет у своих новых друзей защиты от вредного префекта города.

Проверено на встроенном плейере ТВ Samsung UE-C7000

[font='Times New Roman']Автор рипа Samfednik[/font] (Перемуксировано мной)

Качество: BDrip
Контейнер: MKV
Формат 3D: Half OverUnder / Вертикальная анаморфная стереопара
Порядок ракурсов: левый ракурс первый
Видео кодек: x264
Аудио кодек: AC3
Видео: AVC / 1920х1080p / 23,976 fps / 5 857 Kbps
Аудио#1: Русский / AC3 / 48 KHz / 5.1 ch / 640 Kbps
Аудио#2: Украинский / AC3 / 48 KHz / 2 ch / 384 Kbps (MVO - Line)
Аудио#3: Английский / AC3 / 48 KHz / 5.1 ch / 640 Kbps (отдельным файлом)
Аудио#4: Французский / AC3 / 48 KHz / 5.1 ch / 640 Kbps (отдельным файлом)
Субтитры: Вшитые softsub srt русские полные
MediaInfo
General
UniqueID : 197819012261941265443111590462530113222 (0x94D28E51537B77F9B32A507FAA19CEC6)
Complete name : F:\Downloads\UnMonstreAParis(3D)2011.halfOU(Samfednik)\UnMonstreAParis(3D)2011.halfOU(Samfednik).mkv
Format : Matroska
File size : 4.41 GiB
Duration : 1h 29mn
Overall bit rate : 7 021 Kbps
Movie name : Un Monstre A Paris (3D) 2011 (Samfednik)
Encoded date : UTC 2012-02-22 12:12:15
Writing application : mkvmerge v3.4.0 ('Rapunzel') сборка от May 15 2010 09:38:20
Writing library : libebml v0.8.0 + libmatroska v0.9.0
Video
ID : 1
Format : AVC
Format/Info : Advanced Video Codec
Format profile : [email protected]
Format settings, CABAC : Yes
Format settings, ReFrames : 4 frames
Codec ID : V_MPEG4/ISO/AVC
Duration : 1h 29mn
Bit rate : 5 857 Kbps
Width : 1 920 pixels
Height : 1 080 pixels
Display aspect ratio : 16:9
Frame rate : 23.976 fps
Color space : YUV
Chroma subsampling : 4:2:0
Bit depth : 8 bits
Scan type : Progressive
Bits/(Pixel*Frame) : 0.118
Stream size : 3.68 GiB (83%)
Title : BDrip by Samfednik
Writing library : x264 core 116 r2074 2641b9e
Encoding settings : cabac=1 / ref=4 / deblock=1:-3:-3 / analyse=0x3:0x113 / me=umh / subme=9 / psy=1 / psy_rd=1.00:0.15 / mixed_ref=1 / me_range=16 / chroma_me=1 / trellis=2 / 8x8dct=1 / cqm=0 / deadzone=21,11 / fast_pskip=1 / chroma_qp_offset=-3 / threads=6 / sliced_threads=0 / nr=0 / decimate=1 / interlaced=0 / bluray_compat=0 / constrained_intra=0 / bframes=6 / b_pyramid=2 / b_adapt=2 / b_bias=0 / direct=3 / weightb=1 / open_gop=0 / weightp=2 / keyint=250 / keyint_min=23 / scenecut=40 / intra_refresh=0 / rc_lookahead=60 / rc=crf / mbtree=1 / crf=16.5 / qcomp=0.60 / qpmin=0 / qpmax=69 / qpstep=4 / vbv_maxrate=40000 / vbv_bufsize=40000 / crf_max=0.0 / nal_hrd=none / ip_ratio=1.40 / aq=1:0.70
Language : French
Audio #1
ID : 2
Format : AC-3
Format/Info : Audio Coding 3
Mode extension : CM (complete main)
Codec ID : A_AC3
Duration : 1h 29mn
Bit rate mode : Constant
Bit rate : 640 Kbps
Channel(s) : 6 channels
Channel positions : Front: L C R, Side: L R, LFE
Sampling rate : 48.0 KHz
Bit depth : 16 bits
Compression mode : Lossy
Stream size : 412 MiB (9%)
Language : Russian
Audio #2
ID : 3
Format : AC-3
Format/Info : Audio Coding 3
Mode extension : CM (complete main)
Codec ID : A_AC3
Duration : 1h 29mn
Bit rate mode : Constant
Bit rate : 384 Kbps
Channel(s) : 2 channels
Channel positions : Front: L R
Sampling rate : 48.0 KHz
Bit depth : 16 bits
Compression mode : Lossy
Stream size : 247 MiB (5%)
Title : MVO - line
Language : Ukrainian
Text
ID : 4
Format : UTF-8
Codec ID : S_TEXT/UTF8
Codec ID/Info : UTF-8 Plain Text
Title : Полные
Language : Russian
Menu
00:00:00.000 : :01
00:03:14.611 : :02
00:10:38.263 : :03
00:15:07.949 : :04
00:17:48.109 : :05
00:21:38.631 : :06
00:28:02.222 : :07
00:30:39.755 : :08
00:35:02.183 : :09
00:42:24.751 : :10
00:48:00.336 : :11
00:53:32.042 : :12
00:57:17.351 : :13
01:02:58.733 : :14
01:06:36.117 : :15
01:11:08.014 : :16
01:15:37.324 : :17
01:20:14.560 : :18
Скриншоты
Мои раздачи и рипы на трекере
Мои раздачи на трекере
.
Мои рипы в "исполнении" других релизёров:
Анаморфы:
Пираньи 3Д / Piranha 3D - вертикал
Алиса в стране чудес 3D / Alice in Wonderland 3D - горизонтал
Тор 3Д / Thor 3D - вертикал
Пастырь 3Д / Priest 3D - вертикал
Предельные перегрузки 3Д (мечта Зака о полетах) / Ultimate G's 3D (Zac's Flying Dream) - вертикал
Рио 3Д / Rio 3D - вертикал
Tайна красной планеты 3Д / Мars Needs Мoms 3D - вертикал
Король Лев 3Д / The Lion King 3D вертикал
Гномео и Джульетта 3D / Gnomeo and Juliet 3D - вертикал
Мегамозг 3Д / Megamind 3D - вертикал
Shakira - Waka Waka (This Time For Africa) 3D - горизонтал
The Black Eyed Peas - Imma Be 3D - вертикал
Шрам 3Д / Scar 3D - вертикал
Стальные двери 3Д / Iron Doors 3D - вертикал (моя видео-дорога, авто-конверт)
Первый мститель / Captain America: The First Avenger - вертикал
Конан-варвар / Conan the Barbarian - вертикал
LG Demo Disc 3D - вертикал
Полноразмеры:
Пункт назначения 4 в 3Д / The Final Destination 3D - 1920х1600
Рио 3Д / Rio 3D - 1920х1600
Король Лев 3Д / The Lion King 3D - 1920х2160
[font='Times New Roman']Господа копипастеры, пожалуйста, уважайте труд рипперов -
не "забывайте" указывать авторство (Samfednik
) в своих релизах![/font]



Вернуться к началу
 Профиль Отправить личное сообщение  
 
   Похожие торренты   Автор   Торрент   Размер 
В этой теме нет новых непрочитанных сообщений. Идиот в Париже / Un idiot a Paris [комедия, 1967] BDRip-AVC, Mvo

salma3

13 | 5

1.81 ГБ

В этой теме нет новых непрочитанных сообщений. Американский оборотень в Париже / An American Werewolf in Paris [Ужасы, фэнтези, триллер, 1997] HDRip-AVC, Mvo

salma3

0 | 0

746.54 МБ

В этой теме нет новых непрочитанных сообщений. Американский оборотень в Париже / An American Werewolf in Paris [ужасы, фэнтези, триллер, 1997] DVDRip-AVC, Dvo

salma3

0 | 0

2.05 ГБ

В этой теме нет новых непрочитанных сообщений. Идиот в Париже / Un idiot a Paris [комедия, 1967] BDRip 720p, Mvo+Sub

salma3

52 | 0

2.89 ГБ

В этой теме нет новых непрочитанных сообщений. Идиот в Париже / Un idiot à Paris [Комедия, 1967] BDRip 1080p, Mvo+Sub

salma3

77 | 7

5.54 ГБ

В этой теме нет новых непрочитанных сообщений. Пуэрториканцы в Париже / Puerto Ricans in Paris [комедия, 2015] BDRip, Mvo [iTunes]

salma3

747 | 70

1.42 ГБ

В этой теме нет новых непрочитанных сообщений. Streets Of Paris / Exhibition A Paris / Exhibition à Paris / Улицы Парижа (Patrice Cabanel, Wild Video) [1996 г., Feature, Anal, DVDRip] Zabou, Liza Harper, Coralie, Elodie Cherie, Magella

salma3

32 | 12

1.14 ГБ


Начать новую тему Ответить на тему  [ 1 сообщение ] 




Для Мосгорсуда, Роскомнадзора и рекламодателей:: mosgorsud-torrent[собачка]yandex.ru
cron