Торрент файл
скачать торрент магнет ссылка Добавлен: 29 июл 2012, 22:42
Размер: 5.87 ГБ
Сидеров: 2
Личеров: 4
Автор

СообщениеДобавлено: 29 июл 2012, 22:42 

Не в сети
Аватара пользователя
Дата регистрации:
28 ноя 2010, 22:22
Спасибо: 722 / 5
Сообщения: 2030
Кошмар перед Рождеством / The Nightmare Before Christmas
Год выпуска: 1993
Страна: США
Студия: Walt Disney Pictures
Жанр: анимация, мюзикл
Продолжительность: 01:16:36
Перевод: Профессиональный (дублированный)
Русские субтитры: нет
Режиссер на русском: Генри Селик
Режиссер на английском: Henry Selick
Автор сценария и продюсер : Тим Бёртон / Tim Burton
В ролях: Дэнни Элфман, Крис Сарандон, Кэтрин О’Хара, Уильям Хикки, Гленн Шэдикс, Пол Рубенс, Кен Пейдж, Эд Айвори, Сьюзэн МакБрайд, Деби Дерст
Роли озвучивали: Максим Покровский, Алексей Кортнев, Тутта Ларсен, Гарик Сукачев, Николай Фоменко
Описание: Мультфильм рассказывает о царстве Хэллоуин, царстве страхов и кошмаров, где живут мертвецы, уродцы, чудовища во главе с царем ужасов Джеком Скелингтоном. Под рождество Джек случайно попадает в город Рождества, где узнает, что есть где-то радость, добро и веселье. Ему страшно захотелось испытать это чувство — дарить людям счастье — и он похитил Сэнди Клауса и занял его место. Результаты были, правда, самые плачевные, да и подарки его никому, мягко говоря, не понравились. Но он все понял и исправил свою ошибку.
ВНИМАНИЕ!:Для просмотра 3D требуются анаглифные очки (красно-синезеленые)
Дополнительная информация по релизу: исходник http://rutracker.org/forum/viewtopic.php?t=3855398
Качество: BDrip
Контейнер: MKV
Формат 3D: Анаглиф red-cyan(Дюбуа)
Видео кодек: x264
Аудио кодек: AC3
Видео: AVC / 1920х1080 / 23,976 кадр/сек / 10 Мбит/сек / 16:9
Аудио: Русский / AC3 / 48 KHz / 5.1 ch / 448 Kbps
Аудио 2: Английский / AC3 / 48 KHz / 5.1 ch / 640 Kbps
Субтитры: отсутствуют
MediaInfo
General
Unique ID : 250818105177347941617658265791877603235 (0xBCB1CF57EFB46474BA2AF96FA9CBDFA3)
Complete name : H:\Новая папка (2)\Кошмар перед Рождеством - 3D.mkv
Format : Matroska
Format version : Version 2
File size : 5.87 GiB
Duration : 1h 16mn
Overall bit rate : 11.0 Mbps
Encoded date : UTC 2012-05-03 14:46:46
Writing application : mkvmerge v5.4.0 ('Piper') built on Mar 10 2012 13:34:39
Writing library : libebml v1.2.3 + libmatroska v1.3.0
Video
ID : 1
Format : AVC
Format/Info : Advanced Video Codec
Format profile : [email protected]
Format settings, CABAC : Yes
Format settings, ReFrames : 4 frames
Codec ID : V_MPEG4/ISO/AVC
Duration : 1h 16mn
Bit rate : 10 000 Kbps
Width : 1 920 pixels
Height : 1 080 pixels
Display aspect ratio : 16:9
Frame rate : 23.976 fps
Color space : YUV
Chroma subsampling : 4:2:0
Bit depth : 8 bits
Scan type : Progressive
Bits/(Pixel*Frame) : 0.201
Stream size : 5.17 GiB (88%)
Writing library : x264 core 120 r2120bm 0c7dab9
Encoding settings : cabac=1 / ref=4 / deblock=1:1:1 / analyse=0x3:0x113 / me=hex / subme=7 / psy=1 / psy_rd=0.40:0.00 / mixed_ref=1 / me_range=16 / chroma_me=1 / trellis=1 / 8x8dct=1 / cqm=0 / deadzone=21,11 / fast_pskip=1 / chroma_qp_offset=-2 / threads=6 / sliced_threads=0 / nr=0 / decimate=1 / interlaced=0 / bluray_compat=0 / constrained_intra=0 / bframes=5 / b_pyramid=2 / b_adapt=1 / b_bias=0 / direct=1 / weightb=1 / open_gop=0 / weightp=2 / keyint=250 / keyint_min=23 / scenecut=40 / intra_refresh=0 / rc_lookahead=40 / rc=abr / mbtree=1 / bitrate=10000 / ratetol=1.0 / qcomp=0.60 / qpmin=0 / qpmax=69 / qpstep=4 / ip_ratio=1.40 / aq=1:0.60
Default : Yes
Forced : No
Audio #1
ID : 2
Format : AC-3
Format/Info : Audio Coding 3
Mode extension : CM (complete main)
Codec ID : A_AC3
Duration : 1h 16mn
Bit rate mode : Constant
Bit rate : 448 Kbps
Channel(s) : 6 channels
Channel positions : Front: L C R, Side: L R, LFE
Sampling rate : 48.0 KHz
Bit depth : 16 bits
Compression mode : Lossy
Stream size : 246 MiB (4%)
Language : Russian
Default : Yes
Forced : No
Audio #2
ID : 3
Format : AC-3
Format/Info : Audio Coding 3
Mode extension : CM (complete main)
Codec ID : A_AC3
Duration : 1h 16mn
Bit rate mode : Constant
Bit rate : 640 Kbps
Channel(s) : 6 channels
Channel positions : Front: L C R, Side: L R, LFE
Sampling rate : 48.0 KHz
Bit depth : 16 bits
Compression mode : Lossy
Stream size : 351 MiB (6%)
Language : English
Default : No
Forced : No
Скриншоты




Вернуться к началу
 Профиль Отправить личное сообщение  
 
   Похожие торренты   Автор   Торрент   Размер 
В этой теме нет новых непрочитанных сообщений. Кошмар на улице Вязов / A Nightmare on Elm Street [ужасы, 1984] BDRip-HEVC 1080p, Mvo

salma3

0 | 1

5.63 ГБ

В этой теме нет новых непрочитанных сообщений. Книга Генри / The Book of Henry [Драма, Криминал, Триллер, 2017] BDRip 1080p, Dub

salma3

243 | 869

10.89 ГБ

В этой теме нет новых непрочитанных сообщений. Кошмар на улице Вязов / A Nightmare on Elm Street [ужасы, триллер, фэнтези, 2010] BDRip-HEVC 1080p, Dub

salma3

0 | 0

4.26 ГБ

В этой теме нет новых непрочитанных сообщений. Кошмар на улице Вязов 3: Воины сна / A Nightmare on Elm Street 3: Dream Warriors [ужасы, 1987] BDRip-HEVC 1080p, Mvo

salma3

0 | 0

6.94 ГБ

В этой теме нет новых непрочитанных сообщений. Кошмар на улице Вязов 6: Фредди мертв / Freddy's Dead: The Final Nightmare [ужасы, 1991] BDRip-HEVC 1080p, Mvo

salma3

0 | 0

5.81 ГБ

В этой теме нет новых непрочитанных сообщений. Генри и Джун / Henry & June [драма, биография, 1990] BDRemux 1080p, Mvo

salma3

19 | 6

35.07 ГБ

В этой теме нет новых непрочитанных сообщений. Генри и Джун / Henry and June [драма, биография, 1990] BDRip 720p, Mvo

salma3

0 | 0

7.11 ГБ


Начать новую тему Ответить на тему  [ 1 сообщение ] 




Для Мосгорсуда, Роскомнадзора и рекламодателей:: mosgorsud-torrent[собачка]yandex.ru
cron