Торрент файл
скачать торрент магнет ссылка Добавлен: 29 июл 2012, 22:41
Размер: 8.45 ГБ
Сидеров: 7
Личеров: 6
Автор

СообщениеДобавлено: 29 июл 2012, 22:41 

Не в сети
Аватара пользователя
Дата регистрации:
28 ноя 2010, 22:22
Спасибо: 722 / 5
Сообщения: 2030
Кот в сапогах / Puss in Boots
Год выпуска: 2011
Страна: США
Студия: DreamWorks Animation
Жанр: Мультфильм, Приключения, Комедия, Семейный
Продолжительность: 01:30:13
Перевод: Профессиональный (дублированный)
Русские субтитры: нет
Режиссер на русском: Крис Миллер
Режиссер на английском: Chris Miller
В ролях: Антонио Бандерас / Antonio Banderas, Сальма Хайек / Salma Hayek, Зак Галифианакис / Zach Galifianakis, Билли Боб Торнтон / Billy Bob Thornton, Эми Седарис / Amy Sedaris, Констанс Мари / Constance Marie, Гильермо дель Торо / Guillermo del Toro, Майк Митчел / Mike Mitchell, Рич Дитль / Rich Dietl, Райан Крего / Ryan Crego . . .
Роли озвучивали: Всеволод Кузнецов, Татьяна Шитова, Диомид Виноградов, Владимир Зайцев, Марина Бакина . . .
Описание: Мечи пересекутся и сердца будут разбиты в приключениях с одним из самых любимых персонажей из Шрэка — котом в сапогах. Это удалая поездка ранних лет кота в сапогах, когда он объединяется с умным Шалтай-Болтаем и сообразительной Кисой, чтобы украсть знаменитую Гусыню, несущую золотые яйца.
Исходник: http://rutracker.org/forum/viewtopic.php?t=3986216
ВНИМАНИЕ!:Для просмотра 3D требуются анаглифные очки (красно-голубые)

Качество: BDrip
Контейнер: MKV
Формат 3D: Анаглиф red-cyan
Видео кодек: x264
Аудио кодек: AC3
Видео: AVC / 1920х1080p / 23,976 fps / 11.2 Mbps
Аудио: Русский / AC3 / 48 KHz / 5.1 ch / 640 Kbps
Аудио 2: Украинский / AC3 / 48 KHz / 5.1 ch / 640 Kbps
Аудио 3: Английский / AC3 / 48 KHz / 5.1 ch / 640 Kbps
Субтитры: отсутствуют
MediaInfo
General
Unique ID : 238125381978601535299461805596525834785 (0xB32547C623CB50B0BA1EA3079361B221)
Complete name : J:\Фильмы\3Д\Puss in Boots 3D.mkv
Format : Matroska
Format version : Version 2
File size : 8.45 GiB
Duration : 1h 30mn
Overall bit rate : 13.4 Mbps
Encoded date : UTC 2012-07-08 08:01:11
Writing application : mkvmerge v3.4.0 ('Rapunzel') сборка от May 15 2010 09:38:20
Writing library : libebml v0.8.0 + libmatroska v0.9.0
Video
ID : 1
Format : AVC
Format/Info : Advanced Video Codec
Format profile : [email protected]
Format settings, CABAC : Yes
Format settings, ReFrames : 4 frames
Codec ID : V_MPEG4/ISO/AVC
Duration : 1h 30mn
Bit rate : 11.2 Mbps
Width : 1 920 pixels
Height : 1 080 pixels
Display aspect ratio : 16:9
Frame rate : 23.976 fps
Color space : YUV
Chroma subsampling : 4:2:0
Bit depth : 8 bits
Scan type : Progressive
Bits/(Pixel*Frame) : 0.226
Stream size : 7.07 GiB (84%)
Title : Rip by SeRoGa00
Writing library : x264 core 125 r2200 999b753
Encoding settings : cabac=1 / ref=4 / deblock=1:-1:-1 / analyse=0x3:0x133 / me=umh / subme=9 / psy=1 / psy_rd=1.00:0.15 / mixed_ref=1 / me_range=16 / chroma_me=1 / trellis=2 / 8x8dct=1 / cqm=0 / deadzone=21,11 / fast_pskip=1 / chroma_qp_offset=-3 / threads=6 / lookahead_threads=1 / sliced_threads=0 / nr=0 / decimate=1 / interlaced=0 / bluray_compat=0 / constrained_intra=0 / bframes=6 / b_pyramid=2 / b_adapt=2 / b_bias=0 / direct=3 / weightb=1 / open_gop=0 / weightp=2 / keyint=250 / keyint_min=23 / scenecut=40 / intra_refresh=0 / rc=crf / mbtree=0 / crf=18.0 / qcomp=1.00 / qpmin=10 / qpmax=69 / qpstep=4 / ip_ratio=1.40 / pb_ratio=1.30 / aq=1:1.00
Language : English
Default : Yes
Forced : No
Audio #1
ID : 2
Format : AC-3
Format/Info : Audio Coding 3
Mode extension : CM (complete main)
Format settings, Endianness : Big
Codec ID : A_AC3
Duration : 1h 30mn
Bit rate mode : Constant
Bit rate : 640 Kbps
Channel(s) : 6 channels
Channel positions : Front: L C R, Side: L R, LFE
Sampling rate : 48.0 KHz
Bit depth : 16 bits
Compression mode : Lossy
Stream size : 413 MiB (5%)
Language : Russian
Default : Yes
Forced : No
Audio #2
ID : 3
Format : AC-3
Format/Info : Audio Coding 3
Mode extension : CM (complete main)
Format settings, Endianness : Big
Codec ID : A_AC3
Duration : 1h 30mn
Bit rate mode : Constant
Bit rate : 640 Kbps
Channel(s) : 6 channels
Channel positions : Front: L C R, Side: L R, LFE
Sampling rate : 48.0 KHz
Bit depth : 16 bits
Compression mode : Lossy
Stream size : 413 MiB (5%)
Language : Ukrainian
Default : No
Forced : No
Audio #3
ID : 4
Format : AC-3
Format/Info : Audio Coding 3
Mode extension : CM (complete main)
Format settings, Endianness : Big
Codec ID : A_AC3
Duration : 1h 30mn
Bit rate mode : Constant
Bit rate : 640 Kbps
Channel(s) : 6 channels
Channel positions : Front: L C R, Side: L R, LFE
Sampling rate : 48.0 KHz
Bit depth : 16 bits
Compression mode : Lossy
Stream size : 413 MiB (5%)
Language : English
Default : No
Forced : No
Скриншоты




Вернуться к началу
 Профиль Отправить личное сообщение  
 
   Похожие торренты   Автор   Торрент   Размер 
В этой теме нет новых непрочитанных сообщений. Кот в сапогах / Puss in Boots [мультфильм, комедия, приключения, 2011] BDRip 1080p, Dub

salma3

18 | 1

4.37 ГБ

В этой теме нет новых непрочитанных сообщений. Приключения кота в сапогах / The Adventures of Puss in Boots [S03] [Мультсериал, комедия, приключения, семейный, 2016] WEBRip, Mvo [NewStudio]

salma3

105 | 32

3.02 ГБ

В этой теме нет новых непрочитанных сообщений. Приключения кота в сапогах / The Adventures of Puss in Boots [S02] [Мультсериал, комедия, приключения, семейный, 2016] WEBRip 720p, Mvo [NewStudio]

salma3

207 | 32

3.96 ГБ

В этой теме нет новых непрочитанных сообщений. Приключения кота в сапогах / The Adventures of Puss in Boots [2 сезон: 1-11 серия из 11] [Мультсериал, комедия, приключения, семейный, 2016] WEBRip [NewStudio]

Dracon

180 | 47

3.22 ГБ

В этой теме нет новых непрочитанных сообщений. Приключения кота в сапогах / The Adventures of Puss in Boots [01x01-15 из 15] (Даг Лэнгдэйл) [Мультсериал, комедия, приключения, семейный, 2015] WEBRip [NewStudio]

Dracon

914 | 329

4.32 ГБ

В этой теме нет новых непрочитанных сообщений. Приключения кота в сапогах / The Adventures of Puss in Boots [01x01-15 из 15] (Даг Лэнгдэйл) [Мультсериал, комедия, приключения, семейный, 2015] WEBRip 720p [NewStudio]

Dracon

245 | 149

6.43 ГБ

В этой теме нет новых непрочитанных сообщений. Кот в сапогах / Puss in Boots (1968) HDTVRip-AVC от SDIncorporation

marya111

0 | 0

315.19 МБ


Начать новую тему Ответить на тему  [ 1 сообщение ] 




Для Мосгорсуда, Роскомнадзора и рекламодателей:: mosgorsud-torrent[собачка]yandex.ru
cron