Торрент файл
скачать торрент магнет ссылка Добавлен: 29 июл 2012, 22:41
Размер: 11.3 ГБ
Сидеров: 6
Личеров: 5
Автор

СообщениеДобавлено: 29 июл 2012, 22:41 

Не в сети
Аватара пользователя
Дата регистрации:
28 ноя 2010, 22:22
Спасибо: 722 / 5
Сообщения: 2030
Ледниковый период 3: Эра динозавров / Ice Age: Dawn of the Dinosaurs
Год выпуска: 2009
Страна: США
Жанр: комедия, приключения, семейный, мультфильм
Продолжительность: 1:34:01
Перевод: Профессиональный (полное дублирование)
Русские субтитры: нет
Режиссер на русском: Карлос Салдана, Майк Трумейер
Режиссер на английском: Carlos Saldanha, Mike Thurmeier
В ролях: Джон Легуизамо, Куин Латифа, Денис Лири, Саймон Пегг, Джош Пек, Рэй Романо, Шонн Уильям Скотт, Карен Дишер, Крис Уэдж, Юнис Чо
Роли озвучивали: Manny - Степан Старчиков (Ray Romano)
Sid - Антон Комолов (John Leguizamo)
Buck - Вадим Галыгин (Simon Pegg)
Ellie - Ольга Шелест (Queen Latifah)
Crash - Андрей Бархударов (Seann William Scott)
Eddie - Илья Бледный (Josh Peck)
Diego - Александр Груздев (Denis Leary)
...
Описание: К событиям «Ледникового периода 3» жизнь главных героев мультфильма претерпела некоторые изменения. Мамонты Манфред и Элли ожидают появление на свет своего детёныша; саблезубый тигр Диего впал в раздумье о том, не стал ли он слишком «мягкотелым» в компании своих друзей; ленивец Сид, брЕдя желанием создать собственное племя, решился украсть несколько яиц динозавра. Отправившись спасать Сида, друзья попадают в таинственный растительный мир, скрытый под толщами льда, где они сталкиваются с динозаврами и агрессивной окружающей средой, а так же знакомятся с охотником на динозавров — лаской по имени Бак.
Крысобелка Скрэт (который вновь случайным образом стал виной глобальной проблемы, открыв путь в мир динозавров) по-прежнему гоняется за своим орехом, но на этот раз у него появился конкурент — крысобелка Скрэтти, однако, одновременно с одержимой борьбой за орех, эти двое влюбляются друг в друга.
Дополнительная информация по релизу: исходник http://rutracker.org/forum/viewtopic.php?t=3052635
ВНИМАНИЕ!:Для просмотра 3D требуются анаглифные очки (красно-синезеленые)
Качество: BDrip
Контейнер: MKV
Формат 3D: Anaglyph /Анаглиф red-cyan (halfcolor)
Видео кодек: h.264
Аудио кодек: AC3
Видео: AVC / 1920х1040p / 23,976 fps / 16 Мбит/сек /16:9
Аудио: Русский / AC3 / 6 ch / 640 Kbps / 48 KHz
Аудио 2: Английский / AC3 / 6 ch / 640 kbps / 48 KHz
Субтитры: отсутствуют
MediaInfo
General
Unique ID : 225761704963992482045903851700039831830 (0xA9D81F6F12FB35C4BF3D9C5D4455D116)
Complete name : H:\Новая папка (2)\Ice Age 3.1080p-.3d.mkv
Format : Matroska
Format version : Version 2
File size : 11.3 GiB
Duration : 1h 34mn
Overall bit rate : 17.2 Mbps
Encoded date : UTC 2012-04-19 09:45:07
Writing application : mkvmerge v5.4.0 ('Piper') built on Mar 10 2012 13:34:39
Writing library : libebml v1.2.3 + libmatroska v1.3.0
Video
ID : 1
Format : AVC
Format/Info : Advanced Video Codec
Format profile : [email protected]
Format settings, CABAC : Yes
Format settings, ReFrames : 4 frames
Codec ID : V_MPEG4/ISO/AVC
Duration : 1h 34mn
Bit rate : 16.0 Mbps
Width : 1 920 pixels
Height : 1 040 pixels
Display aspect ratio : 16:9
Frame rate : 23.976 fps
Color space : YUV
Chroma subsampling : 4:2:0
Bit depth : 8 bits
Scan type : Progressive
Bits/(Pixel*Frame) : 0.334
Stream size : 10.2 GiB (91%)
Writing library : x264 core 120 r2120bm 0c7dab9
Encoding settings : cabac=1 / ref=4 / deblock=1:1:1 / analyse=0x3:0x113 / me=hex / subme=4 / psy=1 / psy_rd=0.40:0.00 / mixed_ref=0 / me_range=16 / chroma_me=1 / trellis=1 / 8x8dct=1 / cqm=0 / deadzone=21,11 / fast_pskip=1 / chroma_qp_offset=0 / threads=6 / sliced_threads=0 / nr=0 / decimate=1 / interlaced=0 / bluray_compat=0 / constrained_intra=0 / bframes=5 / b_pyramid=2 / b_adapt=1 / b_bias=0 / direct=1 / weightb=1 / open_gop=0 / weightp=1 / keyint=250 / keyint_min=23 / scenecut=40 / intra_refresh=0 / rc_lookahead=20 / rc=abr / mbtree=1 / bitrate=16000 / ratetol=1.0 / qcomp=0.60 / qpmin=0 / qpmax=69 / qpstep=4 / ip_ratio=1.40 / aq=1:0.60
Default : Yes
Forced : No
Audio #1
ID : 2
Format : AC-3
Format/Info : Audio Coding 3
Mode extension : CM (complete main)
Codec ID : A_AC3
Duration : 1h 34mn
Bit rate mode : Constant
Bit rate : 640 Kbps
Channel(s) : 6 channels
Channel positions : Front: L C R, Side: L R, LFE
Sampling rate : 48.0 KHz
Bit depth : 16 bits
Compression mode : Lossy
Stream size : 430 MiB (4%)
Default : Yes
Forced : No
Audio #2
ID : 3
Format : AC-3
Format/Info : Audio Coding 3
Mode extension : CM (complete main)
Codec ID : A_AC3
Duration : 1h 34mn
Bit rate mode : Constant
Bit rate : 640 Kbps
Channel(s) : 6 channels
Channel positions : Front: L C R, Side: L R, LFE
Sampling rate : 48.0 KHz
Bit depth : 16 bits
Compression mode : Lossy
Stream size : 430 MiB (4%)
Default : No
Forced : No
Скриншоты




Вернуться к началу
 Профиль Отправить личное сообщение  
 
   Похожие торренты   Автор   Торрент   Размер 
В этой теме нет новых непрочитанных сообщений. Ледниковый период: Столкновение неизбежно / Ice Age: Collision Cours [мультфильм, фантастика, комедия, приключения, семейный, 2016] BDRip 1080p, Dub [Лицензия]

salma3

165 | 90

7.79 ГБ

В этой теме нет новых непрочитанных сообщений. Ледниковый период: Столкновение неизбежно ( Мультфильм, Фантастика, Комедия, Приключения, Семейный, 2016) BDRip 1080p от Ash61 | 3D-Video | halfOU | iTunes

marya111

155 | 10

8.29 ГБ

В этой теме нет новых непрочитанных сообщений. Ледниковый период: Столкновение неизбежно / Ice Age: Collision Course [Мультфильм, комедия, приключения, семейный, 2016] BDRip 720p, Dub [Лицензия]

salma3

4 | 5

5.05 ГБ

В этой теме нет новых непрочитанных сообщений. Ледниковый период: Столкновение неизбежно (мультфильм, фантастика, комедия, приключения, семейный,2016) BDRip от ExKinoRay | iTunes

marya111

204 | 2

1.42 ГБ

В этой теме нет новых непрочитанных сообщений. Ледниковый период: Столкновение неизбежно / Ice Age: Collision Course (Мультфильм, полнометражный, комедия, приключения, семейный, 2016) BDRemux 1080p от ExKinoRay | 3D-Video | Лицензия

marya111

5 | 1

31.37 ГБ

В этой теме нет новых непрочитанных сообщений. Ледниковый период: Столкновение неизбежно / Ice Age: Collision Course (мультфильм, фантастика, комедия, приключения, семейный, 2016) WEB-DLRip от Scarabey | iTunes

marya111

208 | 24

745.92 МБ

В этой теме нет новых непрочитанных сообщений. Ледниковый период: Столкновение неизбежно / Ice Age: Collision Course [Мультфильм, фантастика, комедия, 2016] BDRip 1080p, Dub [Лицензия] [3D-Video]

salma3

231 | 79

9.06 ГБ


Начать новую тему Ответить на тему  [ 1 сообщение ] 




Для Мосгорсуда, Роскомнадзора и рекламодателей:: mosgorsud-torrent[собачка]yandex.ru
cron