Торрент файл
скачать торрент магнет ссылка Добавлен: 29 июл 2012, 22:41
Размер: 5.71 ГБ
Сидеров: 10
Личеров: 5
Автор

СообщениеДобавлено: 29 июл 2012, 22:41 

Не в сети
Аватара пользователя
Дата регистрации:
28 ноя 2010, 22:22
Спасибо: 722 / 5
Сообщения: 2030
Тарбозавр 3D / Jeombaki: Hanbandoeui Gongryong 3D
Год выпуска: 2011
Страна: Корея Южная
Жанр: Мультфильм, приключения
Продолжительность: 01:28:39
Перевод: Профессиональный (дублированный)
Русские субтитры: нет
Режиссер на русском: Сань-хо Хань
Сценарий :Сань-хо Хань
Продюсер :Won-Bum Kim
Премьера (мир):26 января 2012
Описание: 70 миллионов лет назад динозавры владели миром. В бескрайних лесах обитало бесчисленное множество разновидностей этих удивительных животных. Самый молодой из семьи Тарбозавров, игривый и любопытный малыш по имени Пятнистый, с нетерпением ждет, когда же старшие собратья возьмут его на охоту, чтобы преподать первые уроки взрослой жизни. Но когда наступает этот долгожданный день, на стадо тарбозавров нападает жуткий тираннозавр Одноглазый. Потерявшись, Пятнистый встречается с другим динозавриком, отбившимся от родных, — Синеглазкой. Отныне малышам предстоит вместе сражаться за жизнь. Впереди друзей ждут долгие годы, наполненные любовью, страхом, печалью и радостью, счастьем и надеждой.
Скачать сэмпл
Сэмпл: http://www.sendspace.com/file/so5bzx
Качество: BDrip
Контейнер: MKV
Формат 3D: Half OverUnder / Вертикальная анаморфная стереопара
Порядок ракурсов: левый ракурс первый
Видео кодек: x264
Аудио кодек: AC3
Видео: AVC / 1920x1080p / 8396 Kbps / 23.976 fps
Аудио: Русский / AC3 / 6 channels / 48.0 KHz / 640 Kbps
MediaInfo
General
Unique ID : 192544017939062131710387489413219112935 (0x90DAA10494AE9038B807D4D6DE5E57E7)
Complete name : D:\Tarbozavr.3D.mkv
Format : Matroska
Format version : Version 2
File size : 5.71 GiB
Duration : 1h 28mn
Overall bit rate : 9 220 Kbps
Encoded date : UTC 2012-06-16 07:06:25
Writing application : mkvmerge v3.4.0 ('Rapunzel') сборка от May 15 2010 09:38:20
Writing library : libebml v0.8.0 + libmatroska v0.9.0
Video
ID : 1
Format : AVC
Format/Info : Advanced Video Codec
Format profile : [email protected]
Format settings, CABAC : Yes
Format settings, ReFrames : 4 frames
Codec ID : V_MPEG4/ISO/AVC
Duration : 1h 28mn
Bit rate : 8 396 Kbps
Width : 1 920 pixels
Height : 1 080 pixels
Display aspect ratio : 16:9
Frame rate : 23.976 fps
Color space : YUV
Chroma subsampling : 4:2:0
Bit depth : 8 bits
Scan type : Progressive
Bits/(Pixel*Frame) : 0.169
Stream size : 5.20 GiB (91%)
Writing library : x264 core 125 r2200 999b753
Encoding settings : cabac=1 / ref=4 / deblock=1:-1:-1 / analyse=0x3:0x113 / me=hex / subme=7 / psy=1 / psy_rd=1.00:0.15 / mixed_ref=1 / me_range=16 / chroma_me=1 / trellis=2 / 8x8dct=1 / cqm=0 / deadzone=21,11 / fast_pskip=1 / chroma_qp_offset=-3 / threads=9 / lookahead_threads=1 / sliced_threads=0 / nr=0 / decimate=1 / interlaced=0 / bluray_compat=0 / constrained_intra=0 / bframes=6 / b_pyramid=2 / b_adapt=1 / b_bias=0 / direct=1 / weightb=1 / open_gop=0 / weightp=2 / keyint=250 / keyint_min=23 / scenecut=40 / intra_refresh=0 / rc_lookahead=60 / rc=crf / mbtree=1 / crf=18.0 / qcomp=0.60 / qpmin=0 / qpmax=69 / qpstep=4 / ip_ratio=1.40 / aq=1:1.00
Language : English
Default : No
Forced : No
Audio
ID : 2
Format : AC-3
Format/Info : Audio Coding 3
Mode extension : CM (complete main)
Format settings, Endianness : Big
Codec ID : A_AC3
Duration : 1h 28mn
Bit rate mode : Constant
Bit rate : 640 Kbps
Channel(s) : 6 channels
Channel positions : Front: L C R, Side: L R, LFE
Sampling rate : 48.0 KHz
Bit depth : 16 bits
Compression mode : Lossy
Stream size : 406 MiB (7%)
Language : Russian
Default : Yes
Forced : No
Скриншоты




Вернуться к началу
 Профиль Отправить личное сообщение  
 
   Похожие торренты   Автор   Торрент   Размер 
В этой теме нет новых непрочитанных сообщений. Дурная кровь / Mauvais sang [фантастика, триллер, драма, 1986] BDRip 720p, Mvo

salma3

55 | 35

6.09 ГБ

В этой теме нет новых непрочитанных сообщений. Маленькие герои-черепашки: Взрыв из Прошлого / Teenage Mutant Ninja Turtles - Half-Shell Heroes: Blast to the Past [мультфильм, боевик, комедия, приключения, 2015] WEB-DLRip, Dub

salma3

187 | 32

746.02 МБ

В этой теме нет новых непрочитанных сообщений. Кот в сапогах / Puss in Boots [мультфильм, комедия, приключения, 2011] BDRip 1080p, Dub

salma3

18 | 1

4.37 ГБ

В этой теме нет новых непрочитанных сообщений. Смешарики. Начало (Денис Чернов) [2011, мультфильм, комедия, приключения, семейный, BDRip 720p] R5

marya111

0 | 4

3.55 ГБ

В этой теме нет новых непрочитанных сообщений. Приключения Тинтина: Тайна Единорога / The Adventures of Tintin [мультфильм, боевик, детектив, 2011] BDRip 1080p, Dub

salma3

21 | 3

4.37 ГБ

В этой теме нет новых непрочитанных сообщений. Приключения Флика / A Bug's Life [Мультфильм, комедия, приключения, семейный, 1998] BDRip 720p, Dub [60 fps]

salma3

6 | 2

5.6 ГБ

В этой теме нет новых непрочитанных сообщений. Новые приключения Пса и его друзей / Рок ку-ка-ре-ку / Rock-A-Doodle [мультфильм, комедия, приключения, 1990] BDRip 720p, Dub

salma3

26 | 6

6.65 ГБ


Начать новую тему Ответить на тему  [ 1 сообщение ] 




Для Мосгорсуда, Роскомнадзора и рекламодателей:: mosgorsud-torrent[собачка]yandex.ru
cron