Торрент файл
скачать торрент магнет ссылка Добавлен: 29 июл 2012, 22:40
Размер: 6.18 ГБ
Сидеров: 19
Личеров: 6
Автор

СообщениеДобавлено: 29 июл 2012, 22:40 

Не в сети
Аватара пользователя
Дата регистрации:
28 ноя 2010, 22:22
Спасибо: 722 / 5
Сообщения: 2030
В поисках Жу 3D / Quest for Zhu 3D
Год выпуска: 2011
Страна: США
Студия: Universal
Жанр: мультфильм, детский
Продолжительность: 01:12:57
Перевод: Профессиональный (дублированный)
Русские субтитры: нет
Режиссер: Боб Дусетте / Bob Doucette
Описание:
Трогательный рассказ о четырех молодых хомячках, которые отправляются на поиски, чтобы найти Дворец Жу, где они полагают - все их мечты сбудутся. Присоединяйтесь к смелым и обаятельным крохам в их приключении!..

Проверено на встроенном плейере ТВ Samsung UE-D7000

Качество: BDrip
Контейнер: MKV
Формат 3D: Half OverUnder / Вертикальная анаморфная стереопара
Порядок ракурсов: левый ракурс первый
Видео кодек: x264
Видео: AVC / 1920x1080p / 23.98fps / 8989 kbps
Аудио 1: Русский / AC3 / 48000Hz / 5.1 ch / 640 Kbps
Аудио 2: Английский / DTS / 48000Hz / 5.1 ch / 1510 Kbps
Аудио 3: Немецкий / DTS / 48000Hz / 5.1 ch / 1510 Kbps
Субтитры: Отсутствуют
MediaInfo
General
Complete name : Zhu.Zhu.Pets.Quest.For.Zhu.3D.2011.H-OU.Rus.AC3.Eng.DTS.z-man.The3DTeam.mkv
Format : Matroska
File size : 6.18 GiB
Duration : 1h 12mn
Overall bit rate : 12.1 Mbps
Encoded date : UTC 2012-03-17 20:13:25
Writing application : mkvmerge v3.4.0 ('Rapunzel') сборка от May 15 2010 09:38:20
Writing library : libebml v0.8.0 + libmatroska v0.9.0
Video
ID : 1
Format : AVC
Format/Info : Advanced Video Codec
Format profile : [email protected]
Format settings, CABAC : Yes
Format settings, ReFrames : 4 frames
Format settings, GOP : M=4, N=32
Codec ID : V_MPEG4/ISO/AVC
Duration : 1h 12mn
Bit rate : 8 989 Kbps
Width : 1 920 pixels
Height : 1 080 pixels
Display aspect ratio : 16:9
Frame rate : 23.976 fps
Color space : YUV
Chroma subsampling : 4:2:0
Bit depth : 8 bits
Scan type : Progressive
Bits/(Pixel*Frame) : 0.181
Stream size : 4.58 GiB (74%)
Title : Zhu.Zhu.Pets.Quest.For.Zhu.3D.2011.OU.DL.z-man.The3DTeam
Writing library : x264 core 118 r2085 8a62835
Encoding settings : cabac=1 / ref=4 / deblock=1:-3:-3 / analyse=0x3:0x113 / me=umh / subme=7 / psy=1 / psy_rd=1.00:0.15 / mixed_ref=1 / me_range=16 / chroma_me=1 / trellis=1 / 8x8dct=1 / cqm=0 / deadzone=21,11 / fast_pskip=1 / chroma_qp_offset=-3 / threads=18 / sliced_threads=0 / nr=0 / decimate=1 / interlaced=0 / bluray_compat=0 / constrained_intra=0 / bframes=3 / b_pyramid=2 / b_adapt=1 / b_bias=0 / direct=3 / weightb=1 / open_gop=0 / weightp=2 / keyint=250 / keyint_min=23 / scenecut=40 / intra_refresh=0 / rc_lookahead=40 / rc=crf / mbtree=1 / crf=18.0 / qcomp=0.60 / qpmin=10 / qpmax=69 / qpstep=4 / ip_ratio=1.40 / aq=1:1.00
Audio #1
ID : 2
Format : AC-3
Format/Info : Audio Coding 3
Mode extension : CM (complete main)
Codec ID : A_AC3
Duration : 1h 12mn
Bit rate mode : Constant
Bit rate : 640 Kbps
Channel(s) : 6 channels
Channel positions : Front: L C R, Side: L R, LFE
Sampling rate : 48.0 KHz
Bit depth : 16 bits
Stream size : 334 MiB (5%)
Title : Дубляж
Language : Russian
Audio #2
ID : 3
Format : DTS
Format/Info : Digital Theater Systems
Codec ID : A_DTS
Duration : 1h 12mn
Bit rate mode : Constant
Bit rate : 1 510 Kbps
Channel(s) : 6 channels
Channel positions : Front: L C R, Side: L R, LFE
Sampling rate : 48.0 KHz
Bit depth : 24 bits
Video delay : 11ms
Stream size : 788 MiB (12%)
Language : English
Audio #3
ID : 4
Format : DTS
Format/Info : Digital Theater Systems
Codec ID : A_DTS
Duration : 1h 12mn
Bit rate mode : Constant
Bit rate : 755 Kbps
Channel(s) : 6 channels
Channel positions : Front: L C R, Side: L R, LFE
Sampling rate : 48.0 KHz
Bit depth : 24 bits
Video delay : 11ms
Stream size : 394 MiB (6%)
Language : German
Скриншоты


.nfo
______________ ______________ ________ ________
\__ ___/ | \_ _____/ \_____ \\______ \
| | / ~ \ __)_ _(__ < | | \
| | \ Y / \ / \| ` \
|____| \___|_ /_______ / /______ /_______ /
\/ \/ \/ \/
.-= Honesty .-=-. Loyalty .-=-. Integrity =-.
______________________ _____ _____
\__ ___/\_ _____/ / _ \ / \
| | | __)_ / /_\ \ / \ / \
| | | \/ | \/ Y \
| | /_______ /\____|__ /\____|__ /
|____| ` \/ \/ \/
-===[ RELEASE NAME ]===¬
Zhu.Zhu.Pets.Quest.For.Zhu.3D.2011.OU.DL.z-man.The3DTeam
L------------------------------------------------------------------------------------------
-===[ INFORMATION ]===¬
г-----------------------------------------------------------------------------------------¬
Title................: Zhu Zhu Pets Quest For Zhu
IMDB Link............: http://www.imdb.com/title/tt2073154/
Type.................: 3D Blu-ray Over Under Encode
Audio................: English 5.1 DTS, German 5.1 DTS
Genre................: Animation
Format...............: MKV
Encoder..............: z-man
MKV Size.............: 5.86GB
Length...............: 1h 12mn
Video Format.........: H264
Codec................: X264
Resolution...........: 1080P
FPS..................: 23.976
Compression Format...: Rar
L------------------------------------------------------------------------------------------
-====[ POST INFO ]====¬
г-----------------------------------------------------------------------------------------¬
Posted by............: The3DTeam
Posted on............: 09/10/2011
L------------------------------------------------------------------------------------------
-====[ File Details ]====¬
г-----------------------------------------------------------------------------------------¬
Complete name : Zhu.Zhu.Pets.Quest.For.Zhu.3D.2011.OU.DL.z-man.The3DTeam.mkv
Format : Matroska
File size : 5.86 GiB
Duration : 1h 12mn
Overall bit rate : 11.5 Mbps
Encoded date : UTC 2011-10-09 15:20:38
Writing application : mkvmerge v4.9.1 ('Ich will')
Writing library : libebml v1.2.1 + libmatroska v1.1.1
Video
ID : 1
Format : AVC
Format/Info : Advanced Video Codec
Format profile : [email protected]
Format settings, CABAC : Yes
Format settings, ReFrames : 4 frames
Format settings, GOP : M=4, N=32
Codec ID : V_MPEG4/ISO/AVC
Duration : 1h 12mn
Bit rate : 9 002 Kbps
Width : 1 920 pixels
Height : 1 080 pixels
Display aspect ratio : 16:9
Frame rate : 23.976 fps
Color space : YUV
Chroma subsampling : 4:2:0
Bit depth : 8 bits
Scan type : Progressive
Bits/(Pixel*Frame) : 0.181
Stream size : 4.59 GiB (78%)
Title : Zhu.Zhu.Pets.Quest.For.Zhu.3D.2011.OU.DL.z-man.The3DTeam
Writing library : x264 core 118 r2085 8a62835
Encoding settings : cabac=1 / ref=4 / deblock=1:-3:-3 /
analyse=0x3:0x113 / me=umh / subme=7 / psy=1 / psy_rd=1.00:0.15 / mixed_ref=1 /
me_range=16 / chroma_me=1 / trellis=1 / 8x8dct=1 / cqm=0 / deadzone=21,11 /
fast_pskip=1 / chroma_qp_offset=-3 / threads=18 / sliced_threads=0 / nr=0 /
decimate=1 / interlaced=0 / bluray_compat=0 / constrained_intra=0 / bframes=3 /
b_pyramid=2 / b_adapt=1 / b_bias=0 / direct=3 / weightb=1 / open_gop=0 / weightp=2 /
keyint=250 / keyint_min=23 / scenecut=40 / intra_refresh=0 / rc_lookahead=40 / rc=crf /
mbtree=1 / crf=18.0 / qcomp=0.60 / qpmin=10 / qpmax=69 / qpstep=4 / ip_ratio=1.40 / aq=1:1.00
Audio #1
ID : 2
Format : DTS
Format/Info : Digital Theater Systems
Codec ID : A_DTS
Duration : 1h 12mn
Bit rate mode : Constant
Bit rate : 1 510 Kbps
Channel(s) : 6 channels
Channel positions : Front: L C R, Side: L R, LFE
Sampling rate : 48.0 KHz
Bit depth : 24 bits
Compression mode : Lossy
Stream size : 788 MiB (13%)
Language : English
Audio #2
ID : 3
Format : DTS
Format/Info : Digital Theater Systems
Codec ID : A_DTS
Duration : 1h 12mn
Bit rate mode : Constant
Bit rate : 755 Kbps
Channel(s) : 6 channels
Channel positions : Front: L C R, Side: L R, LFE
Sampling rate : 48.0 KHz
Bit depth : 24 bits
Compression mode : Lossy
Stream size : 394 MiB (7%)
Language : German
L------------------------------------------------------------------------------------------
-====[ FINAL WORD ]====¬
г-----------------------------------------------------------------------------------------¬
If you share our releases on another site, please keep the filename the same, and make
sure proper credit is given to us. It is a simple thing to ask, but these days a lot of
uploaders do not give proper credit where it is due. Doing this ensures we continue to
bring you quality 3D releases. Remember, we don't just share our releases, We source them,
rip them and encode them, for you to enjoy. Please respect our work.
Thank you - The3DTeam (3D4ALL-3D4U-z-man)
L------------------------------------------------------------------------------------------
Спасибо за рип z-man и The3DTeam



Вернуться к началу
 Профиль Отправить личное сообщение  
 
   Похожие торренты   Автор   Торрент   Размер 
В этой теме нет новых непрочитанных сообщений. В поисках приключений / The Quest [боевик, приключения, 1996] BDRip, Mvo

salma3

23 | 2

1.45 ГБ

В этой теме нет новых непрочитанных сообщений. В поисках приключений / The Quest [боевик, приключения, 1996] BDRip 720p, Mvo

salma3

0 | 1

5.56 ГБ

В этой теме нет новых непрочитанных сообщений. В поисках Галактики / Galaxy Quest [Фантастика, комедия, приключения, 1999] BDRip-AVC, Mvo

salma3

299 | 46

746.01 МБ

В этой теме нет новых непрочитанных сообщений. В поисках галактики / Galaxy Quest [фантастика, комедия, приключения, 1999] BDRip-HEVC 1080p, Mvo

salma3

248 | 99

6.43 ГБ

В этой теме нет новых непрочитанных сообщений. В поисках приключений / The Quest [Боевик, триллер, приключения, 1996] Blu-Ray Remux 1080p, Mvo+Dvo+Avo+Sub

salma3

0 | 0

27.59 ГБ

В этой теме нет новых непрочитанных сообщений. В поисках галактики / Galaxy Quest [фантастика, боевик, комедия, приключения, 1999] HDRip, Mvo

salma3

12 | 2

1.45 ГБ

В этой теме нет новых непрочитанных сообщений. В поисках Дори / Finding Dory (Мультфильм, комедия, приключения, семейный, 2016) BDRip-AVC | Лицензия

marya111

129 | 15

747.14 МБ


Начать новую тему Ответить на тему  [ 1 сообщение ] 




Для Мосгорсуда, Роскомнадзора и рекламодателей:: mosgorsud-torrent[собачка]yandex.ru
cron