Торрент файл
скачать торрент магнет ссылка Добавлен: 29 июл 2012, 22:40
Размер: 2.77 ГБ
Сидеров: 7
Личеров: 5
Автор

СообщениеДобавлено: 29 июл 2012, 22:40 

Не в сети
Аватара пользователя
Дата регистрации:
28 ноя 2010, 22:22
Спасибо: 722 / 5
Сообщения: 2030
Иван Царевич и Серый Волк
Год выпуска: 2011
Страна: Россия
Студия: Мельница, СТВ
Жанр: Мультфильм, Комедия, Приключения, Семейный
Продолжительность: 01:26:02
Перевод: Не требуется
Русские субтитры: нет
Режиссер на русском: Владимир Торопчин
Роли озвучивали: Никита Ефремов (Иван), Артур Смольянинов (волк), Иван Охлобыстин (царь), Татьяна Бунина (Василиса), Виктор Сухоруков (первый министр), Михаил Боярский (ученый кот), Сергей Гармаш (Змей Горыныч), Сергей Русскин (Кощей Бессмертный), Лия Ахеджакова (Баба Яга), Елена Шульман (русалка), Кристина Асмус (белка), Константин Бронзит (царь-император), Олег Куликович (волшебный клубок), Анатолий Петров (повар), Александр Боярский (Злая Тень)
Описание: Увлекательная история от создателей богатырской трилогии, в которой героев русских народных сказок ждут новые приключения, опасности и забавные ситуации.
ВНИМАНИЕ!:Для просмотра 3D требуются анаглифные очки (красно-голубые)

Качество: BDrip
Контейнер: MKV
Формат 3D: Анаглиф red-cyan
Видео кодек: x264
Аудио кодек: AC3
Видео: AVC / 1920х1080p / 23,976 fps / 3878 Kbps
Аудио: Русский / AC3 / 48 KHz / 5.1 ch / 640 Kbps
Субтитры: отсутствуют
MediaInfo
General
Unique ID : 201757571572359704513602926561608804942 (0x97C91848BB73D2C7981AAF9BF8BB2A4E)
Complete name : J:\Фильмы\3Д\Иван Царевич и Серый Волк.mkv
Format : Matroska
Format version : Version 2
File size : 2.77 GiB
Duration : 1h 26mn
Overall bit rate : 4 610 Kbps
Encoded date : UTC 2012-06-06 06:47:50
Writing application : mkvmerge v5.4.0 ('Piper') built on Mar 10 2012 13:34:39
Writing library : libebml v1.2.3 + libmatroska v1.3.0
Video
ID : 1
Format : AVC
Format/Info : Advanced Video Codec
Format profile : [email protected]
Format settings, CABAC : Yes
Format settings, ReFrames : 4 frames
Muxing mode : Header stripping
Codec ID : V_MPEG4/ISO/AVC
Duration : 1h 26mn
Bit rate : 3 878 Kbps
Width : 1 920 pixels
Height : 1 080 pixels
Display aspect ratio : 16:9
Frame rate : 23.976 fps
Color space : YUV
Chroma subsampling : 4:2:0
Bit depth : 8 bits
Scan type : Progressive
Bits/(Pixel*Frame) : 0.078
Stream size : 2.33 GiB (84%)
Writing library : x264 core 125 r2200 999b753
Encoding settings : cabac=1 / ref=4 / deblock=1:1:1 / analyse=0x3:0x113 / me=hex / subme=7 / psy=1 / psy_rd=1.00:0.15 / mixed_ref=1 / me_range=16 / chroma_me=1 / trellis=2 / 8x8dct=1 / cqm=0 / deadzone=21,11 / fast_pskip=1 / chroma_qp_offset=-3 / threads=9 / lookahead_threads=1 / sliced_threads=0 / nr=0 / decimate=1 / interlaced=0 / bluray_compat=0 / constrained_intra=0 / bframes=6 / b_pyramid=2 / b_adapt=1 / b_bias=0 / direct=1 / weightb=1 / open_gop=0 / weightp=2 / keyint=250 / keyint_min=23 / scenecut=40 / intra_refresh=0 / rc_lookahead=60 / rc=crf / mbtree=1 / crf=18.0 / qcomp=0.60 / qpmin=0 / qpmax=69 / qpstep=4 / ip_ratio=1.40 / aq=1:1.00
Language : English
Default : Yes
Forced : No
Audio
ID : 2
Format : AC-3
Format/Info : Audio Coding 3
Mode extension : CM (complete main)
Format settings, Endianness : Big
Muxing mode : Header stripping
Codec ID : A_AC3
Duration : 1h 26mn
Bit rate mode : Constant
Bit rate : 640 Kbps
Channel(s) : 6 channels
Channel positions : Front: L C R, Side: L R, LFE
Sampling rate : 48.0 KHz
Bit depth : 16 bits
Compression mode : Lossy
Stream size : 394 MiB (14%)
Language : Russian
Default : Yes
Forced : No
Скриншоты




Вернуться к началу
 Профиль Отправить личное сообщение  
 
   Похожие торренты   Автор   Торрент   Размер 
В этой теме нет новых непрочитанных сообщений. Иван Царевич и Серый Волк 3 [Мультфильм, приключения, семейный, 2015] WEB-DL 1080p

Dracon

3547 | 134

2.91 ГБ

В этой теме нет новых непрочитанных сообщений. Иван Царевич и Серый Волк 3 [мультфильм, приключения, семейный, 2015] BDRip 720p

salma3

75 | 5

4.19 ГБ

В этой теме нет новых непрочитанных сообщений. Иван Царевич и Серый Волк 3 [Мультфильм, приключения, семейный, 2015] Blu-Ray [Лицензия]

salma3

158 | 44

14.22 ГБ

В этой теме нет новых непрочитанных сообщений. Иван Царевич и Серый Волк 3 [Мультфильм, приключения, семейный, 2015] WEB-DLRip

Dracon

7595 | 563

1.37 ГБ

В этой теме нет новых непрочитанных сообщений. Аисты / Storks [мультфильм, фэнтези, комедия, приключения, семейный, 2016] BDRip 1080p, Dub [Лицензия]

salma3

59 | 14

8.86 ГБ

В этой теме нет новых непрочитанных сообщений. Дозор джунглей / Les as de la jungle [Мультфильм, комедия, приключения, семейный, 2017] BDRip 1080p, Dub [iTunes]

salma3

283 | 17

1.99 ГБ

В этой теме нет новых непрочитанных сообщений. Волки и овцы: бе-е-е-зумное превращение [Мультфильм, семейный, комедия, приключения, 2016] BDRip 1080p [iTunes]

salma3

637 | 118

4.45 ГБ


Начать новую тему Ответить на тему  [ 1 сообщение ] 




Для Мосгорсуда, Роскомнадзора и рекламодателей:: mosgorsud-torrent[собачка]yandex.ru
cron