Торрент файл
скачать торрент магнет ссылка Добавлен: 29 июл 2012, 22:39
Размер: 6.46 ГБ
Сидеров: 12
Личеров: 4
Автор

СообщениеДобавлено: 29 июл 2012, 22:39 

Не в сети
Аватара пользователя
Дата регистрации:
28 ноя 2010, 22:22
Спасибо: 722 / 5
Сообщения: 2030
Звёздные собаки: Белка и Стрелка
Год выпуска: 2010
Страна: Россия
Студия: Центр Национального фильма
Жанр: Мультфильм, Приключения, Комедия
Продолжительность: 01:28:25
Перевод: Не требуется
Русские субтитры: нет
Режиссер на русском: Святослав Ушаков , Инна Евланникова
В ролях: Анна Большова, Елена Яковлева, Евгений Миронов, Сергей Гармаш, Александр Баширов, Руслан Кулешов, Сергей Юшкевич, Николай Сморчков, Всеволод Кузнецов, Жанна Никонова
Описание: Привычный ход вещей нарушен! Цирковая собака Белка больше не выйдет на манеж покорять сердца зрителей, а дворняжка Стрелка не будет ночевать в подворотнях и искать себе пропитание. Теперь они не просто собаки, а члены отряда космонавтов. И лишь самые достойные, самые выносливые отправятся покорять космическое пространство.
Внимание!:Для просмотра 3D требуются анаглифные очки (красно-синезеленые)
Дополнительная информация по релизу: Исходник взят отсюда http://rutracker.org/forum/viewtopic.php?t=3880211
Качество: BDrip
Контейнер: MKV
Формат 3D: Анаглиф red-cyan
Видео кодек: x264
Аудио кодек: AC3
Видео: AVC / 1920х1080 / 23,976 кадр/сек / 10 Мбит/сек / 16:9
Аудио: Русский / AC3 / 48 KHz / 5.1 ch / 640 Kbps
Субтитры: отсутствуют
MediaInfo
General
Unique ID : 238716910657189222339333464976242275852 (0xB3973463B8B42943989BF5658B20760C)
Complete name : H:\Новая папка (2)\Звёздные собаки Белка и Стрелка.mkv
Format : Matroska
Format version : Version 2
File size : 6.46 GiB
Duration : 1h 28mn
Overall bit rate : 10.5 Mbps
Encoded date : UTC 2012-04-28 14:24:16
Writing application : mkvmerge v5.4.0 ('Piper') built on Mar 10 2012 13:34:39
Writing library : libebml v1.2.3 + libmatroska v1.3.0
Video
ID : 1
Format : AVC
Format/Info : Advanced Video Codec
Format profile : [email protected]
Format settings, CABAC : Yes
Format settings, ReFrames : 4 frames
Codec ID : V_MPEG4/ISO/AVC
Duration : 1h 28mn
Bit rate : 10 000 Kbps
Width : 1 920 pixels
Height : 1 080 pixels
Display aspect ratio : 16:9
Frame rate : 23.976 fps
Color space : YUV
Chroma subsampling : 4:2:0
Bit depth : 8 bits
Scan type : Progressive
Bits/(Pixel*Frame) : 0.201
Stream size : 5.94 GiB (92%)
Writing library : x264 core 120 r2120bm 0c7dab9
Encoding settings : cabac=1 / ref=4 / deblock=1:1:1 / analyse=0x3:0x113 / me=hex / subme=4 / psy=1 / psy_rd=0.40:0.00 / mixed_ref=0 / me_range=16 / chroma_me=1 / trellis=1 / 8x8dct=1 / cqm=0 / deadzone=21,11 / fast_pskip=1 / chroma_qp_offset=0 / threads=6 / sliced_threads=0 / nr=0 / decimate=1 / interlaced=0 / bluray_compat=0 / constrained_intra=0 / bframes=5 / b_pyramid=2 / b_adapt=1 / b_bias=0 / direct=1 / weightb=1 / open_gop=0 / weightp=1 / keyint=250 / keyint_min=23 / scenecut=40 / intra_refresh=0 / rc_lookahead=20 / rc=abr / mbtree=1 / bitrate=10000 / ratetol=1.0 / qcomp=0.60 / qpmin=0 / qpmax=69 / qpstep=4 / ip_ratio=1.40 / aq=1:0.60
Default : Yes
Forced : No
Audio
ID : 2
Format : AC-3
Format/Info : Audio Coding 3
Mode extension : CM (complete main)
Codec ID : A_AC3
Duration : 1h 28mn
Bit rate mode : Constant
Bit rate : 640 Kbps
Channel(s) : 6 channels
Channel positions : Front: L C R, Side: L R, LFE
Sampling rate : 48.0 KHz
Bit depth : 16 bits
Compression mode : Lossy
Stream size : 405 MiB (6%)
Language : Russian
Default : Yes
Forced : No
Скриншоты




Вернуться к началу
 Профиль Отправить личное сообщение  
 
   Похожие торренты   Автор   Торрент   Размер 
В этой теме нет новых непрочитанных сообщений. Реальная белка 2 / The Nut Job 2: Nutty by Nature [Мультфильм, комедия, приключения, 2017] BDRip, Dub [iTunes]

salma3

7343 | 1596

1.42 ГБ

В этой теме нет новых непрочитанных сообщений. Сезон охоты 3 / Open Season 3 [мультфильм, комедия, приключения, 2010] BDRip 1080p, Dub

salma3

16 | 14

4.37 ГБ

В этой теме нет новых непрочитанных сообщений. Звездные врата: Континуум / Stargate: Continuum [фантастика, фэнтези, приключения, 2008] BDRip 1080p, Mvo

salma3

38 | 12

4.35 ГБ

В этой теме нет новых непрочитанных сообщений. Все собаки празднуют Рождество / An All Dogs Christmas Carol [мультфильм, 1998] WEB-DL 1080p, Dub

salma3

64 | 18

3.5 ГБ

В этой теме нет новых непрочитанных сообщений. Звездные врата: Ковчег Истины / Stargate: The Ark of Truth [фантастика, фэнтези, приключения, 2008] BDRip 1080p, Mvo

salma3

176 | 34

8.8 ГБ

В этой теме нет новых непрочитанных сообщений. Звездные врата: Атлантида / Stargate: Atlantis [S04] [Фантастика, боевик, приключения, 2007-2008] BDRip 1080p, Mvo [ТВ3]

salma3

11 | 7

79.5 ГБ

В этой теме нет новых непрочитанных сообщений. Изгой-один: Звёздные войны. Истории / Rogue One [Фантастика, Боевик, Приключения, 2016] BDRip 1080p, Dub [3D-Video] [iTunes]

salma3

1231 | 467

8.32 ГБ


Начать новую тему Ответить на тему  [ 1 сообщение ] 




Для Мосгорсуда, Роскомнадзора и рекламодателей:: mosgorsud-torrent[собачка]yandex.ru
cron