Торрент файл
скачать торрент магнет ссылка Добавлен: 29 июл 2012, 22:36
Размер: 7.63 ГБ
Сидеров: 10
Личеров: 5
Автор

СообщениеДобавлено: 29 июл 2012, 22:36 

Не в сети
Аватара пользователя
Дата регистрации:
28 ноя 2010, 22:22
Спасибо: 722 / 5
Сообщения: 2030
Двигай время! / Los ilusionautas
Год выпуска: 2012
Страна: Франция, Перу
Студия: Aronnax Animation Studios
Жанр: мультфильм, фэнтези, приключения, семейный
Продолжительность: 01:21:32
Перевод: Профессиональный (дублированный)
Русские субтитры: нет
Режиссер на русском: Эдуардо Шульдт
Режиссер на английском: Eduardo Schuldt
В ролях: Nathan Aswell, Чера Бэйли, Кэтлин Барр, Лиллиэн Карлсон, Гари Чок, Йен Джеймс Корлетт, Майкл Донован, Kent Gallie, Фил Хэйес, Роджер Келли
Описание: Невероятные события потрясают Францию. Все герои знаменитых романов Жюля Верна ожили и, сами того не ведая, несут хаос и разрушения. А всё потому, что новый президент Франции и министр культуры задумали внести в романы великого писателя правки и перепутали там всё. Спасти ситуацию может лишь команда из 4-х одарённых детей, которые отправлены в прошлое, чтобы вернуть все истории в прежнее русло и поместить героев Жюля Верна обратно на страницы книг.
Качество: BDrip
Контейнер: MKV
Формат 3D: Half OverUnder / Вертикальная анаморфная стереопара
Порядок ракурсов: левый ракурс первый
Видео кодек: x264
Аудио кодек: AC3
Видео: AVC / 1920х1080p / 23,976 fps / 12.5 Mbps
Аудио: Русский / AC3 / 48 KHz / 5.1 ch / 640 Kbps
Субтитры: отсутствуют
MediaInfo
General
Unique ID : 243719301562036575674483377326567257114 (0xB75AA14D99D97D429074625F052CF41A)
Complete name : J:\Фильмы\3Д\Двигай время!.mkv
Format : Matroska
Format version : Version 2
File size : 7.63 GiB
Duration : 1h 21mn
Overall bit rate : 13.4 Mbps
Encoded date : UTC 2012-07-10 00:39:22
Writing application : mkvmerge v3.4.0 ('Rapunzel') сборка от May 15 2010 09:38:20
Writing library : libebml v0.8.0 + libmatroska v0.9.0
Video
ID : 1
Format : AVC
Format/Info : Advanced Video Codec
Format profile : [email protected]
Format settings, CABAC : Yes
Format settings, ReFrames : 4 frames
Codec ID : V_MPEG4/ISO/AVC
Duration : 1h 21mn
Bit rate : 12.5 Mbps
Width : 1 920 pixels
Height : 1 080 pixels
Display aspect ratio : 16:9
Frame rate : 23.976 fps
Color space : YUV
Chroma subsampling : 4:2:0
Bit depth : 8 bits
Scan type : Progressive
Bits/(Pixel*Frame) : 0.251
Stream size : 7.11 GiB (93%)
Title : Rip by SeRoGa00
Writing library : x264 core 125 r2200 999b753
Encoding settings : cabac=1 / ref=4 / deblock=1:-1:-1 / analyse=0x3:0x133 / me=umh / subme=9 / psy=1 / psy_rd=1.00:0.15 / mixed_ref=1 / me_range=16 / chroma_me=1 / trellis=2 / 8x8dct=1 / cqm=0 / deadzone=21,11 / fast_pskip=1 / chroma_qp_offset=-3 / threads=12 / lookahead_threads=2 / sliced_threads=0 / nr=0 / decimate=1 / interlaced=0 / bluray_compat=0 / constrained_intra=0 / bframes=6 / b_pyramid=2 / b_adapt=2 / b_bias=0 / direct=3 / weightb=1 / open_gop=0 / weightp=2 / keyint=250 / keyint_min=23 / scenecut=40 / intra_refresh=0 / rc_lookahead=60 / rc=crf / mbtree=1 / crf=18.0 / qcomp=0.60 / qpmin=10 / qpmax=69 / qpstep=4 / ip_ratio=1.40 / aq=1:1.00
Language : English
Default : Yes
Forced : No
Audio
ID : 2
Format : AC-3
Format/Info : Audio Coding 3
Mode extension : CM (complete main)
Format settings, Endianness : Big
Codec ID : A_AC3
Duration : 1h 21mn
Bit rate mode : Constant
Bit rate : 640 Kbps
Channel(s) : 6 channels
Channel positions : Front: L C R, Side: L R, LFE
Sampling rate : 48.0 KHz
Bit depth : 16 bits
Compression mode : Lossy
Stream size : 373 MiB (5%)
Language : Russian
Default : Yes
Forced : No
Скриншоты




Вернуться к началу
 Профиль Отправить личное сообщение  
 
   Похожие торренты   Автор   Торрент   Размер 
В этой теме нет новых непрочитанных сообщений. Существо / La Entidad (Эдуардо Шульдт) [2015, ужасы, WEBDLRip] avo

Nickolas3435

120 | 8

795.98 МБ

В этой теме нет новых непрочитанных сообщений. Приключения олененка Рудольфа / Rudolph, the Red-Nosed Reindeer [мультфильм, мюзикл, фэнтези, приключения, семейный, 1964] BDRip 1080p, Mvo

salma3

7 | 4

3.62 ГБ

В этой теме нет новых непрочитанных сообщений. Снеговик / The Snowman [мультфильм, короткометражка, фэнтези, приключения, семейный, 1982] BDRip-AVC

salma3

3 | 1

1.45 ГБ

В этой теме нет новых непрочитанных сообщений. Аисты / Storks [мультфильм, фэнтези, комедия, приключения, семейный, 2016] BDRip-AVC, Dub [Лицензия]

salma3

376 | 111

2.18 ГБ

В этой теме нет новых непрочитанных сообщений. Аисты / Storks [мультфильм, фэнтези, комедия, приключения, семейный, 2016] BDRip 1080p, Dub [Лицензия]

salma3

59 | 14

8.86 ГБ

В этой теме нет новых непрочитанных сообщений. Аисты / Storks ( мультфильм, фэнтези, комедия, приключения, семейный, 2016) BDRip от HQCLUB | D | Лицензия

marya111

157 | 16

1.45 ГБ

В этой теме нет новых непрочитанных сообщений. Кубо. Легенда о самурае / Kubo and the Two Strіngs (Мультфильм, фэнтези, приключения, семейный, 2016) BDRip 1080p | 3D | HOU | L

marya111

44 | 33

12.27 ГБ


Начать новую тему Ответить на тему  [ 1 сообщение ] 




Для Мосгорсуда, Роскомнадзора и рекламодателей:: mosgorsud-torrent[собачка]yandex.ru
cron