Торрент файл
скачать торрент магнет ссылка Добавлен: 29 июл 2012, 22:35
Размер: 5.23 ГБ
Сидеров: 6
Личеров: 5
Автор

СообщениеДобавлено: 29 июл 2012, 22:35 

Не в сети
Аватара пользователя
Дата регистрации:
28 ноя 2010, 22:22
Спасибо: 722 / 5
Сообщения: 2030
Джок 3D / Jock of the Bushveld 3D
Год выпуска: 2011
Страна: США, ЮАР
Студия: Jock Animation, Motion Sound & Picture
Жанр: Мультфильм, комедия, приключения, семейный
Продолжительность: 01:19:43
Перевод: Профессиональный (дублированный)
Русские субтитры: нет
Режиссер на русском: Дункан МакНили
Режиссер на английском: Duncan MacNeillie
В ролях: Брайан Адамс, Уильям Болдуин, Энтони Бишоп, Луиса Сердан, Филина Цердан, Тед Дэнсон, Роуз Эмануэл, Ава Флюти, Катерина Флюти, Ким Харт
Описание: История приключений очаровательного и бесстрашного пса по кличке Джок — самого младшего, и, как оказалось, самого слабого из своих братьев и сестер. Его ждут удивительные приключения и невероятные испытания. Он станет сильным и отважным, храбрым и преданным — лучшим другом для своего юного хозяина.
Качество: BDrip
Контейнер: MKV
Формат 3D: Half OverUnder / Вертикальная анаморфная стереопара
Порядок ракурсов: левый ракурс первый
Видео кодек: x264
Аудио кодек: AC3
Видео: AVC, 8567 Kbps, 1920x1080, 23.976 fps
Аудио: Русский AC3, 6 ch, 640 Kbps
Субтитры: отсутствуют
MediaInfo
General
Unique ID : 170975850097933410175199898875145338021 (0x80A0C03E112731EBB3F4274BEAA5BCA5)
Complete name : J:\Фильмы\3Д\Jock of the Bushveld 3D.mkv
Format : Matroska
Format version : Version 2
File size : 5.23 GiB
Duration : 1h 19mn
Overall bit rate : 9 394 Kbps
Encoded date : UTC 2012-06-18 07:21:06
Writing application : mkvmerge v3.4.0 ('Rapunzel') сборка от May 15 2010 09:38:20
Writing library : libebml v0.8.0 + libmatroska v0.9.0
Video
ID : 1
Format : AVC
Format/Info : Advanced Video Codec
Format profile : [email protected]
Format settings, CABAC : Yes
Format settings, ReFrames : 4 frames
Codec ID : V_MPEG4/ISO/AVC
Duration : 1h 19mn
Bit rate : 8 567 Kbps
Width : 1 920 pixels
Height : 1 080 pixels
Display aspect ratio : 16:9
Frame rate : 23.976 fps
Color space : YUV
Chroma subsampling : 4:2:0
Bit depth : 8 bits
Scan type : Progressive
Bits/(Pixel*Frame) : 0.172
Stream size : 4.77 GiB (91%)
Writing library : x264 core 125 r2200 999b753
Encoding settings : cabac=1 / ref=4 / deblock=1:-1:-1 / analyse=0x3:0x113 / me=hex / subme=7 / psy=1 / psy_rd=1.00:0.15 / mixed_ref=1 / me_range=16 / chroma_me=1 / trellis=2 / 8x8dct=1 / cqm=0 / deadzone=21,11 / fast_pskip=1 / chroma_qp_offset=-3 / threads=9 / lookahead_threads=1 / sliced_threads=0 / nr=0 / decimate=1 / interlaced=0 / bluray_compat=0 / constrained_intra=0 / bframes=6 / b_pyramid=2 / b_adapt=1 / b_bias=0 / direct=1 / weightb=1 / open_gop=0 / weightp=2 / keyint=250 / keyint_min=23 / scenecut=40 / intra_refresh=0 / rc_lookahead=60 / rc=crf / mbtree=1 / crf=18.0 / qcomp=0.60 / qpmin=0 / qpmax=69 / qpstep=4 / ip_ratio=1.40 / aq=1:1.00
Language : English
Default : No
Forced : No
Audio
ID : 2
Format : AC-3
Format/Info : Audio Coding 3
Mode extension : CM (complete main)
Format settings, Endianness : Big
Codec ID : A_AC3
Duration : 1h 19mn
Bit rate mode : Constant
Bit rate : 640 Kbps
Channel(s) : 6 channels
Channel positions : Front: L C R, Side: L R, LFE
Sampling rate : 48.0 KHz
Bit depth : 16 bits
Compression mode : Lossy
Stream size : 365 MiB (7%)
Language : Russian
Default : Yes
Forced : No
Скриншоты




Вернуться к началу
 Профиль Отправить личное сообщение  
 
   Похожие торренты   Автор   Торрент   Размер 
В этой теме нет новых непрочитанных сообщений. Смешарики. Начало (Денис Чернов) [2011, мультфильм, комедия, приключения, семейный, BDRip 720p] R5

marya111

0 | 4

3.55 ГБ

В этой теме нет новых непрочитанных сообщений. Приключения Флика / A Bug's Life [Мультфильм, комедия, приключения, семейный, 1998] BDRip 720p, Dub [60 fps]

salma3

6 | 2

5.6 ГБ

В этой теме нет новых непрочитанных сообщений. Аисты / Storks [мультфильм, фэнтези, комедия, приключения, семейный, 2016] BDRip-AVC, Dub [Лицензия]

salma3

376 | 111

2.18 ГБ

В этой теме нет новых непрочитанных сообщений. Крякнутые каникулы (мультфильм, комедия, приключения, семейный, 2016) BDRip 720p от Leonardo

marya111

145 | 34

5.71 ГБ

В этой теме нет новых непрочитанных сообщений. В поисках Дори / Finding Dory (Мультфильм, комедия, приключения, семейный, 2016) BDRip-AVC | Лицензия

marya111

129 | 15

747.14 МБ

В этой теме нет новых непрочитанных сообщений. Дозор джунглей / Les as de la jungle [Мультфильм, комедия, приключения, семейный, 2017] BDRip 1080p, Dub [iTunes]

salma3

283 | 17

1.99 ГБ

В этой теме нет новых непрочитанных сообщений. Аисты / Storks [мультфильм, фэнтези, комедия, приключения, семейный, 2016] BDRip 1080p, Dub [Лицензия]

salma3

59 | 14

8.86 ГБ


Начать новую тему Ответить на тему  [ 1 сообщение ] 




Для Мосгорсуда, Роскомнадзора и рекламодателей:: mosgorsud-torrent[собачка]yandex.ru
cron