Торрент файл
скачать торрент магнет ссылка Добавлен: 02 фев 2012, 17:50
Размер: 1.79 ГБ
Сидеров: 11
Личеров: 5
Автор

СообщениеДобавлено: 02 фев 2012, 17:50 

Не в сети
Супермодератор
Аватара пользователя
Дата регистрации:
14 июн 2010, 21:00
Возраст: 29
Спасибо: 1341 / 1
Сообщения: 5611
Откуда: НиНО
Три Богатыря и Шамаханская Царица 3D
Год выпуска: 2010
Страна: Россия
Студия: Кинокомпания CTB, анимационная студия Мельница
Жанр: Mультфильм, комедия, приключения, семейный
Продолжительность: 01:16:42
Перевод: Не требуется
Режиссер на русском: Сергей Глезин
Роли озвучивали: Валерий Соловьев, Анна Геллер, Олег Куликович, Лия Медведева, Сергей Маковецкий, Константин Бронзит, Дмитрий Быковский, Дмитрий Высоцкий, Мария Цветкова, Игорь Шибанов
Описание: Легендарная Шамаханская царица, которая сводила с ума многих царей и простых смертных, положила свой глаз и на Киевского князя. Тот заболел любовью странной по ней. Но чтобы доставить в целости и сохранности эту чудо-богиню в Киев-Град, срочно из отпуска вызывают всех троих, уже знакомых нам, богатырей: Алёшу Поповича, Добрыню Никитича и Илью Муромца. Теперь троица должна решить, как быть дальше? Вроде бы и слухи о царице ходят нелестные, и князя жаль.

Дополнительная информация по релизу: Обсуждение "Как и на чём смотреть 3Д"
Для просмотра 3D требуются анаглифные очки

Сэмпл: http://www.fileserve.com/file/Ca5n2u9
Качество: BDRip (720p)
Контейнер: AVI
Формат 3D: Анаглиф red-cyan
Видео кодек: xVid
Аудио кодек: AC3
Видео: XviD, 2709 Кбит/с, 1280x672
Аудио: AC3, 6 ch, 640 Кбит/с
MediaInfo
General
Complete name : \\MISHGANBOOK\Download\torrents\Мультфильмы\Tri.bogatira.i.Samahanskaja.carica.3D.2010.x264.BDRip.(720p).avi
Format : AVI
Format/Info : Audio Video Interleave
File size : 1.79 GiB
Duration : 1h 16mn
Overall bit rate : 3 349 Kbps
Writing application : VirtualDubMod 1.5.10.1 (build 2366/release)
Writing library : VirtualDubMod build 2366/release
Video
ID : 0
Format : MPEG-4 Visual
Format profile : [email protected]
Format settings, BVOP : Yes
Format settings, QPel : No
Format settings, GMC : No warppoints
Format settings, Matrix : Default (MPEG)
Codec ID : XVID
Codec ID/Hint : XviD
Duration : 1h 16mn
Bit rate : 2 699 Kbps
Width : 1 280 pixels
Height : 672 pixels
Display aspect ratio : 1.905
Frame rate : 23.976 fps
Resolution : 24 bits
Colorimetry : 4:2:0
Scan type : Progressive
Bits/(Pixel*Frame) : 0.131
Stream size : 1.45 GiB (81%)
Writing library : XviD 1.2.1 (UTC 2008-12-04)
Audio
ID : 1
Format : AC-3
Format/Info : Audio Coding 3
Codec ID : 2000
Duration : 1h 16mn
Bit rate mode : Constant
Bit rate : 640 Kbps
Channel(s) : 6 channels
Channel positions : Front: L C R, Surround: L R, LFE
Sampling rate : 48.0 KHz
Stream size : 351 MiB (19%)
Alignment : Split accross interleaves
Interleave, duration : 42 ms (1.00 video frame)
Interleave, preload duration : 500 ms
Скриншоты





Вернуться к началу
 Профиль Отправить личное сообщение  
 
   Похожие торренты   Автор   Торрент   Размер 
В этой теме нет новых непрочитанных сообщений. Приключения Флика / A Bug's Life [Мультфильм, комедия, приключения, семейный, 1998] BDRip 720p, Dub [60 fps]

salma3

0 | 1

5.6 ГБ

В этой теме нет новых непрочитанных сообщений. Крякнутые каникулы (мультфильм, комедия, приключения, семейный, 2016) BDRip 720p от Leonardo

marya111

145 | 34

5.71 ГБ

В этой теме нет новых непрочитанных сообщений. Смешарики. Начало (Денис Чернов) [2011, мультфильм, комедия, приключения, семейный, BDRip 720p] R5

marya111

0 | 4

3.55 ГБ

В этой теме нет новых непрочитанных сообщений. В поисках Дори / Finding Dory [мультфильм, комедия, приключения, семейный, 2016] BDRip 720p, Dub [Лицензия]

salma3

178 | 20

6.55 ГБ

В этой теме нет новых непрочитанных сообщений. Дом / Home (Тим Джонсон) [мультфильм, фантастика, фэнтези, комедия, приключения, семейный, 2015] BDRip 720p, Dub [iTunes]

Dracon

22 | 0

3.53 ГБ

В этой теме нет новых непрочитанных сообщений. Волки и овцы: бе-е-е-зумное превращение [Мультфильм, семейный, комедия, приключения, 2016] BDRip 720p [iTunes]

salma3

579 | 103

2.84 ГБ

В этой теме нет новых непрочитанных сообщений. В поисках Дори / Finding Dory (Мультфильм, комедия, приключения, семейный, 2016) BDRip 720p | iTunes

marya111

492 | 23

2.74 ГБ


Начать новую тему Ответить на тему  [ 1 сообщение ] 




Для Мосгорсуда, Роскомнадзора и рекламодателей:: mosgorsud-torrent[собачка]yandex.ru
cron