Торрент файл
скачать торрент магнет ссылка Добавлен: 02 фев 2012, 17:49
Размер: 10.05 ГБ
Сидеров: 3
Личеров: 4
Автор

СообщениеДобавлено: 02 фев 2012, 17:49 

Не в сети
Супермодератор
Аватара пользователя
Дата регистрации:
14 июн 2010, 21:00
Возраст: 30
Спасибо: 1341 / 1
Сообщения: 5611
Откуда: НиНО
Красавица и чудовище 3D / Beauty and the Beast 3D
Год выпуска: 1991
Страна: США
Студия: Disney
Жанр: Фэнтези, мелодрама, мюзикл, семейный, мультфильм
Продолжительность: 01:24:54
Перевод: Профессиональный (дублированный), профессиональный (многоголосый), авторский (одноголосый)
Русские субтитры: есть
Режиссер на русском: Гари Троусдэйл, Кирк Уайз
Режиссер на английском: Gary Trousdale, Kirk Wise
В ролях: Пэйдж О'Хара, Робби Бенсон, Ричард Уайт, Джерри Орбах, Дэвид Огден Стирс, Анжела Лансбери, Брэдли Пирс, Рекс Эверхарт, Джесси Корти, Хэл Смит и др.
Описание: Уолт Дисней приглашает вас в зачарованный замок, скрытый в чаще темного волшебного леса. Его хозяин ужасное Чудовище, которого все боятся и ненавидят. Лишь самая прекрасная и смелая девушка в мире по имени Белль способна разгадать тайну страшного, а на самом деле, очень несчастного хозяина замка и разрушить чары, обрекшие его на вечное пребывание в шкуре жуткого зверя. Только тот, кто растопит лед в сердце чудовища и сможет полюбить его таким, какой он есть, сможет вернуть ему человеческий облик, но, чтобы спасти хозяина зачарованного замка, Белль придется выступить против всех: ведь жители ее деревни, подстрекаемые злобным охотником Гастоном, хотят погубить гордое и доброе Чудовище...
Качество: BDrip
Контейнер: MKV
Формат 3D: Half SideBySide / Горизонтальная анаморфная стереопара
Порядок ракурсов: левый ракурс первый
Видео кодек: x264
Аудио кодек: AC3
Видео: MPEG4 Video (H264), 1920x1080, 23.976 fps, 12.2 Mbps
Аудио 1: Dolby AC3, 48000 Hz, 6 ch, 384 Kbps (Дубляж)
Аудио 2: Dolby AC3, 48000 Hz, 6 ch, 384 Kbps (Многоголосый)
Аудио 3: Dolby AC3, 48000 Hz, 6 ch, 640 Kbps (П. Гланц и И. Королева)
Аудио 4: Dolby AC3, 48000 Hz, 6 ch, 640 Kbps (А. Гаврилов)
Аудио 5: Dolby AC3, 48000 Hz, 6 ch, 640 Kbps (А. Михалев)
Аудио 6: Dolby AC3, 48000 Hz, 6 ch, 640 Kbps (Ю. Живов)
Аудио 7: Dolby AC3, 48000 Hz, 6 ch, 640 Kbps (English)
Аудио 8: Dolby AC3, 48000 Hz, 2 ch, 192 Kbps (English комментарии)
Субтитры: Английские, русские, русские на комментарии
MediaInfo
Format : Matroska
Format version : Version 2
File size : 10.0 GiB
Duration : 1h 26mn
Overall bit rate : 16.7 Mbps
Encoded date : UTC 2011-10-09 00:28:07
Writing application : mkvmerge v5.0.0 ('Die Wahre Liebe') built on Sep 25 2011 20:33:49
Writing library : libebml v1.2.2 + libmatroska v1.3.0
Video
ID : 1
Format : AVC
Format/Info : Advanced Video Codec
Format profile : [email protected]
Format settings, CABAC : Yes
Format settings, ReFrames : 4 frames
Codec ID : V_MPEG4/ISO/AVC
Duration : 1h 26mn
Bit rate : 12.2 Mbps
Width : 1 920 pixels
Height : 1 080 pixels
Display aspect ratio : 16:9
Frame rate : 23.976 fps
Color space : YUV
Chroma subsampling : 4:2:0
Bit depth : 8 bits
Scan type : Progressive
Bits/(Pixel*Frame) : 0.245
Stream size : 7.34 GiB (73%)
Title : MPEG4 Video (H264) 1920x1080 23.98fps
Writing library : x264 core 118 r2085 8a62835
Encoding settings : cabac=1 / ref=4 / deblock=1:1:1 / analyse=0x3:0x113 / me=umh / subme=8 / psy=1 / psy_rd=0.40:0.00 / mixed_ref=1 / me_range=16 / chroma_me=1 / trellis=1 / 8x8dct=1 / cqm=0 / deadzone=21,11 / fast_pskip=1 / chroma_qp_offset=-2 / threads=6 / sliced_threads=0 / nr=0 / decimate=1 / interlaced=0 / bluray_compat=0 / constrained_intra=0 / bframes=5 / b_pyramid=2 / b_adapt=2 / b_bias=0 / direct=3 / weightb=1 / open_gop=0 / weightp=2 / keyint=250 / keyint_min=23 / scenecut=40 / intra_refresh=0 / rc_lookahead=50 / rc=crf / mbtree=1 / crf=14.0 / qcomp=0.60 / qpmin=0 / qpmax=69 / qpstep=4 / ip_ratio=1.40 / aq=1:0.60
Language : English
Audio #1
ID : 2
Format : AC-3
Format/Info : Audio Coding 3
Mode extension : CM (complete main)
Codec ID : A_AC3
Duration : 1h 26mn
Bit rate mode : Constant
Bit rate : 384 Kbps
Channel(s) : 6 channels
Channel positions : Front: L C R, Side: L R, LFE
Sampling rate : 48.0 KHz
Bit depth : 16 bits
Compression mode : Lossy
Stream size : 237 MiB (2%)
Title : Дубляж
Language : Russian
Audio #2
ID : 3
Format : AC-3
Format/Info : Audio Coding 3
Mode extension : CM (complete main)
Codec ID : A_AC3
Duration : 1h 26mn
Bit rate mode : Constant
Bit rate : 384 Kbps
Channel(s) : 6 channels
Channel positions : Front: L C R, Side: L R, LFE
Sampling rate : 48.0 KHz
Bit depth : 16 bits
Compression mode : Lossy
Stream size : 237 MiB (2%)
Title : Многоголосый
Language : Russian
Audio #3
ID : 4
Format : AC-3
Format/Info : Audio Coding 3
Mode extension : CM (complete main)
Codec ID : A_AC3
Duration : 1h 26mn
Bit rate mode : Constant
Bit rate : 640 Kbps
Channel(s) : 6 channels
Channel positions : Front: L C R, Side: L R, LFE
Sampling rate : 48.0 KHz
Bit depth : 16 bits
Compression mode : Lossy
Stream size : 394 MiB (4%)
Title : П. Гланц и И. Королева
Language : Russian
Audio #4
ID : 5
Format : AC-3
Format/Info : Audio Coding 3
Mode extension : CM (complete main)
Codec ID : A_AC3
Duration : 1h 26mn
Bit rate mode : Constant
Bit rate : 640 Kbps
Channel(s) : 6 channels
Channel positions : Front: L C R, Side: L R, LFE
Sampling rate : 48.0 KHz
Bit depth : 16 bits
Compression mode : Lossy
Stream size : 394 MiB (4%)
Title : А. Гаврилов
Language : Russian
Audio #5
ID : 6
Format : AC-3
Format/Info : Audio Coding 3
Mode extension : CM (complete main)
Codec ID : A_AC3
Duration : 1h 26mn
Bit rate mode : Constant
Bit rate : 640 Kbps
Channel(s) : 6 channels
Channel positions : Front: L C R, Side: L R, LFE
Sampling rate : 48.0 KHz
Bit depth : 16 bits
Compression mode : Lossy
Stream size : 394 MiB (4%)
Title : А. Михалев
Language : Russian
Audio #6
ID : 7
Format : AC-3
Format/Info : Audio Coding 3
Mode extension : CM (complete main)
Codec ID : A_AC3
Duration : 1h 26mn
Bit rate mode : Constant
Bit rate : 640 Kbps
Channel(s) : 6 channels
Channel positions : Front: L C R, Side: L R, LFE
Sampling rate : 48.0 KHz
Bit depth : 16 bits
Compression mode : Lossy
Stream size : 394 MiB (4%)
Title : Ю. Живов
Language : Russian
Audio #7
ID : 8
Format : AC-3
Format/Info : Audio Coding 3
Mode extension : CM (complete main)
Codec ID : A_AC3
Duration : 1h 26mn
Bit rate mode : Constant
Bit rate : 640 Kbps
Channel(s) : 6 channels
Channel positions : Front: L C R, Side: L R, LFE
Sampling rate : 48.0 KHz
Bit depth : 16 bits
Compression mode : Lossy
Stream size : 394 MiB (4%)
Language : English
Audio #8
ID : 9
Format : AC-3
Format/Info : Audio Coding 3
Mode extension : CM (complete main)
Codec ID : A_AC3
Duration : 1h 26mn
Bit rate mode : Constant
Bit rate : 192 Kbps
Channel(s) : 2 channels
Channel positions : Front: L R
Sampling rate : 48.0 KHz
Bit depth : 16 bits
Compression mode : Lossy
Stream size : 118 MiB (1%)
Title : Комментарии
Language : English
Text #1
ID : 10
Format : UTF-8
Codec ID : S_TEXT/UTF8
Codec ID/Info : UTF-8 Plain Text
Language : English
Text #2
ID : 11
Format : PGS
Muxing mode : zlib
Codec ID : S_HDMV/PGS
Codec ID/Info : The same subtitle format used on BDs/HD-DVDs
Language : Russian
Text #3
ID : 12
Format : PGS
Muxing mode : zlib
Codec ID : S_HDMV/PGS
Codec ID/Info : The same subtitle format used on BDs/HD-DVDs
Title : Комментарии
Language : Russian
Скриншоты



Вернуться к началу
 Профиль Отправить личное сообщение  
 
   Похожие торренты   Автор   Торрент   Размер 
В этой теме нет новых непрочитанных сообщений. Красавица и чудовище / Beauty and the Beast [Мюзикл, фэнтези, мелодрама, 2017] BDRip 1080p, Dub [Лицензия]

salma3

413 | 785

8.38 ГБ

В этой теме нет новых непрочитанных сообщений. Красавица и чудовище / Beauty and the Beast [Мюзикл, фэнтези, мелодрама, 2017] BDRip 1080p, Dub [Лицензия] [3D-Video]

salma3

75 | 117

9.26 ГБ

В этой теме нет новых непрочитанных сообщений. Красавица и чудовище / Beauty and the Beast [мюзикл, фэнтези, мелодрама, семейный, 2017] CAMRip, Dub

salma3

9270 | 1891

2.05 ГБ

В этой теме нет новых непрочитанных сообщений. Красавица и чудовище / Beauty and the Beast [Мюзикл, фэнтези, мелодрама, семейный, 2017] DVD5, Dub

salma3

95 | 28

4.37 ГБ

В этой теме нет новых непрочитанных сообщений. Красавица и чудовище / Beauty and the Beast [Мюзикл, фэнтези, мелодрама, 2017] BDRip, Dub [Лицензия]

salma3

322 | 82

2.18 ГБ

В этой теме нет новых непрочитанных сообщений. Красавица и чудовище / Beauty and the Beast [Мюзикл, фэнтези, мелодрама, 2017] BDRip-AVC, Dub [Лицензия]

salma3

139 | 51

2.84 ГБ

В этой теме нет новых непрочитанных сообщений. Красавица и чудовище / Beauty and the Beast [Мюзикл, фэнтези, мелодрама, 2017] BDRip, Dub [iTunes]

salma3

13592 | 2176

1.46 ГБ


Начать новую тему Ответить на тему  [ 1 сообщение ] 




Для Мосгорсуда, Роскомнадзора и рекламодателей:: mosgorsud-torrent[собачка]yandex.ru
cron