Торрент файл
скачать торрент магнет ссылка Добавлен: 02 фев 2012, 17:48
Размер: 2.07 ГБ
Сидеров: 5
Личеров: 6
Автор

СообщениеДобавлено: 02 фев 2012, 17:48 

Не в сети
Супермодератор
Аватара пользователя
Дата регистрации:
14 июн 2010, 21:00
Возраст: 30
Спасибо: 1341 / 1
Сообщения: 5611
Откуда: НиНО
Дети шпионов 4D / Spy Kids: All the Time in the World in 4D
Год выпуска: 2011
Страна: США
Студия: Dimension Films, Troublemaker Studios
Жанр: Фантастика, комедия, приключения, семейный
Продолжительность: 01:27:44
Перевод: Профессиональный (дублированный)
Режиссер на русском: Robert Rodriguez
Режиссер на английском: Роберт Родригес
В ролях: Джессика Альба, Джоэль МакХэйл, Алекса Вега, Дэрил Сабара, Роуэн Бланчард, Мэйсон Кук, Джереми Пивен, Дэнни Трехо, Белль Солорзано, Дженни Солорзано, Рики Джервэйс, Эльмо, Джетт Гуд, Чак Кьюро, Альберт Им, Рэй Кроуфорд, Джонатан Брек, Алькидес Диас, Роджер Эдвардс, Анджела Ланца, Чад Герерро, Марси Мэдисон, Десмонд Элдридж, Далтон Грэй, Майлз Мармолехо, Уил Поллард, Сара Арнольд, Антонио Бандерас, Дайан Бернард, Шарлотт Биггс, Тейлор Джеймс Брандт, Сэди Брук, Брэндон Бушер, Мелисса Кордеро, Тайгер Дарроу, Эрик Винсент Девенпорт, Терри Харрисон, Джереми Скотт Хоппер
Описание: Брат и сестра поневоле должны стать крутыми шпионами, чтобы помешать мечтающему о мировом господстве злодею, и выручить из беды собственную мачеху — секретного суперагента, удалившегося на покой.

Дополнительная информация по релизу: Обсуждение "Как и на чём смотреть 3Д"
Для просмотра 3D требуются анаглифные очки

Сэмпл: http://www.fileserve.com/file/WBQwDjA
Качество: HDrip
Контейнер: AVI
Формат 3D: Анаглиф red-cyan
Видео кодек: xVid
Аудио кодек: AC3
Видео: XviD, 1280x720, 2598 Kbps
Аудио 1: Русский (AC3, 6ch, 384 Kbps)
Аудио 2: Английский (AC3, 6ch, 384 Kbps)
MediaInfo
General
Complete name : \\MISHGANBOOK\Download\torrents\Кино\Deti.Shpionov.4D.3D.Anaglyph.2011.XviD.HDRip.avi
Format : AVI
Format/Info : Audio Video Interleave
Format profile : OpenDML
File size : 2.07 GiB
Duration : 1h 27mn
Overall bit rate : 3 384 Kbps
Movie name : Spy Kids 4D
Genre : Action/Comedy/Sci-Fi
Writing application : VirtualDubMod 1.5.10.1 (build 2366/release)
Original source form/Name : Movie
Copyright : 3.u.i.l.D.TheJoker
Video
ID : 0
Format : MPEG-4 Visual
Format profile : [email protected]
Format settings, BVOP : Yes
Format settings, QPel : No
Format settings, GMC : No warppoints
Format settings, Matrix : Default (MPEG)
Codec ID : XVID
Codec ID/Hint : XviD
Duration : 1h 27mn
Bit rate : 2 598 Kbps
Width : 1 280 pixels
Height : 720 pixels
Display aspect ratio : 16:9
Frame rate : 23.976 fps
Resolution : 24 bits
Colorimetry : 4:2:0
Scan type : Progressive
Bits/(Pixel*Frame) : 0.118
Stream size : 1.59 GiB (77%)
Writing library : XviD 1.2.1 (UTC 2008-12-04)
Audio #1
ID : 1
Format : AC-3
Format/Info : Audio Coding 3
Codec ID : 2000
Duration : 1h 27mn
Bit rate mode : Constant
Bit rate : 384 Kbps
Channel(s) : 6 channels
Channel positions : Front: L C R, Surround: L R, LFE
Sampling rate : 48.0 KHz
Stream size : 241 MiB (11%)
Alignment : Split accross interleaves
Interleave, duration : 42 ms (1.00 video frame)
Interleave, preload duration : 500 ms
Audio #2
ID : 2
Format : AC-3
Format/Info : Audio Coding 3
Codec ID : 2000
Duration : 1h 27mn
Bit rate mode : Constant
Bit rate : 384 Kbps
Channel(s) : 6 channels
Channel positions : Front: L C R, Surround: L R, LFE
Sampling rate : 48.0 KHz
Stream size : 241 MiB (11%)
Alignment : Split accross interleaves
Interleave, duration : 42 ms (1.00 video frame)
Interleave, preload duration : 500 ms
Скриншоты




Вернуться к началу
 Профиль Отправить личное сообщение  
 
   Похожие торренты   Автор   Торрент   Размер 
В этой теме нет новых непрочитанных сообщений. Хорошие дети / Good Kids [комедия, 2016] HDRip, Mvo

salma3

1216 | 378

1.37 ГБ

В этой теме нет новых непрочитанных сообщений. Дорогая, я уменьшил детей / Honey, I Shrunk the Kids [Комедия, семейный, фантастика, 1989] HDRip, Mvo [СТС]

salma3

53 | 11

1.37 ГБ

В этой теме нет новых непрочитанных сообщений. Дорогая, я уменьшил детей / Honey, I Shrunk the Kids [Комедия, приключения, семейный, 1989] HDRip, Mvo [ОРТ]

salma3

18 | 6

745.49 МБ

В этой теме нет новых непрочитанных сообщений. Дорогая, я уменьшил детей / Honey, I Shrunk the Kids [Комедия, приключения, семейный, 1989] HDRip, Mvo [ОРТ]

salma3

20 | 2

1.46 ГБ

В этой теме нет новых непрочитанных сообщений. Малыши из мусорного бачка / The Garbage Pail Kids Movie [фантастика, комедия, приключения, семейный, 1987] DVDRip, Avo

salma3

42 | 10

2 ГБ

В этой теме нет новых непрочитанных сообщений. Хорошие дети / Good Kids [Комедия, 2016] BDRip, Mvo

salma3

126 | 55

1.45 ГБ

В этой теме нет новых непрочитанных сообщений. Мертвые дети / Strange Behavior / Dead kids [ужасы, детектив, фантастика, 1981] BDRemux 1080р, Mvo

salma3

0 | 1

18.89 ГБ


Начать новую тему Ответить на тему  [ 1 сообщение ] 




Для Мосгорсуда, Роскомнадзора и рекламодателей:: mosgorsud-torrent[собачка]yandex.ru
cron