Торрент файл
скачать торрент магнет ссылка Добавлен: 02 фев 2012, 17:47
Размер: 35.66 ГБ
Сидеров: 8
Личеров: 6
Автор

СообщениеДобавлено: 02 фев 2012, 17:47 

Не в сети
Супермодератор
Аватара пользователя
Дата регистрации:
14 июн 2010, 21:00
Возраст: 30
Спасибо: 1341 / 1
Сообщения: 5611
Откуда: НиНО

Год выпуска: 1993
Страна: США
Студия: Walt Disney Pictures
Жанр: анимация, мюзикл
Продюсер: Тим Бартон
Режиссер: Генри Селлик
В ролях: Дэнни Элфман, Крис Сарандон, Кэтрин О’Хара, Уильям Хикки, Гленн Шэдикс, Пол Рубенс, Кен Пейдж, Эд Айвори, Сьюзэн МакБрайд, Деби Дерст.
Роли озвучивали: Максим Покровский Алексей Кортнев Тутта Ларсен Гарик Сукачев Николай Фоменко
Перевод: Профессиональный (дублированный)
Русские субтитры: есть
Продолжительность: 01:16:36
Описание: Мультфильм рассказывает о царстве Хэллоуин, царстве страхов и кошмаров, где живут мертвецы, уродцы, чудовища во главе с царем ужасов Джеком Скелингтоном. Под рождество Джек случайно попадает в город Рождества, где узнает, что есть где-то радость, добро и веселье. Ему страшно захотелось испытать это чувство — дарить людям счастье — и он похитил Сэнди Клауса и занял его место. Результаты были, правда, самые плачевные, да и подарки его никому, мягко говоря, не понравились. Но он все понял и исправил свою ошибку.
Бонусы На диске:
• "Пасхальное яйцо" (Easter Egg) - секретное меню выбора бонусов (включается - в ТОП меню, находясь на выборе русской 7.1 ДТСМА дорожки 3 (трижды) нажмите "ВПРАВО");
• Комментарии создателей (переведено субтитрами);
• "Праздник в замке призраков" (07:14) (переведено субтитрами);
• Оригинальная поэма Т.Бартона (послужившая созданию мультфильма) - "Кошмар перед Рождеством" (10:58) (переведено субтитрами);
• История создания мультфильма (24:43) (переведено субтитрами);
• "Праздник в замке призраков" (расширенные доп. материалы) (24:23) (переведено субтитрами);
• "Винсент" - короткометражка (05:53) (переведено субтитрами);
• Удаленные сцены (02:53) (переведено субтитрами);
• "Чудовища из далёкого прошлого" - короткометражка (30:03) (переведено субтитрами);
• Расскадровки (03:46) (переведено дублированным аудио-переводом);
• Русская версия фильма о фильме (от телекомпании "ТНТ") - герои, сценарий, озвучка, и многое другое (30:00) (перевод не требуется - на русском языке)
Качество: Blu-Ray Disc
Контейнер: ISO
Формат 3D: Blu-ray 3D
Видео кодек: MVC
Аудио кодек: DTS-HD, AC3
Видео: 1920*1080 (16:9), 23,976 fps, 22250 kbps.
Аудио1: (RUS) DTS-HD Master Audio, 7.1, 48 kHz, 24-bit (DTS Core: 5.1 / 48 kHz / 1509 kbps / 24-bit)
Аудио2: (ENG) Dolby TrueHD Audio, 24-bit, 5.1, 48 kHz, 640 kbps. (MVO - TYCOON)
Аудио3: (RUS) Dolby Digital Audio, 448 kbps, 5.1, 48 kHz, DN -4dB (DUB)
Аудио4: (RUS) Dolby Digital Audio, 384 kbps, 5.1, 48 kHz, DN -4dB (MVO - HTB+)
Аудио5: (RUS) Dolby Digital Audio, 96 kbps, Mono, 48 kHz.
Субтитры: (PGS): English, Russian (Полные), Russian (Форсированные), Russian (Комментарии), Ukrainian (Полные)
Цитата:
Если у вас отсутствует устройство, воспроизводящее 3D-формат, то автоматически запуститься 2D.[/spoiler][spoiler="BDInfo"]
BDInfo
Disc Title: NIGHTMARE_BC_3D_BLUEBIRD
Disc Size: 38 284 996 841 bytes
Protection: AACS
BD-Java: No
Extras: Blu-ray 3D
BDInfo: 0.5.6
Notes:
BDINFO HOME:
Cinema Squid
http://www.cinemasquid.com/blu-ray/tools/bdinfo
INCLUDES FORUMS REPORT FOR:
AVS Forum Blu-ray Audio and Video Specifications Thread
http://www.avsforum.com/avs-vb/showthread.php?t=1155731
********************
PLAYLIST: 00002.MPLS
********************
<--- BEGIN FORUMS PASTE --->Код:
Код:
Total   Video
Title                                                           Codec   Length  Movie Size      Disc Size       Bitrate Bitrate Main Audio Track                          Secondary Audio Track
-----                                                           ------  ------- --------------  --------------  ------- ------- ------------------                        ---------------------
00002.MPLS                                                      MPEG-2  1:20:21 2 780 024 832   38 284 996 841  4,61    3,99    DD AC3 5.1 384Kbps[/spoiler][b]Код:[/b]
Код:
DISC INFO:
Disc Title:     NIGHTMARE_BC_3D_BLUEBIRD
Disc Size:      38 284 996 841 bytes
Protection:     AACS
BD-Java:        No
Extras:         Blu-ray 3D
BDInfo:         0.5.6
PLAYLIST REPORT:
Name:                   00002.MPLS
Length:                 1:20:21 (h:m:s)
Size:                   2 780 024 832 bytes
Total Bitrate:          4,61 Mbps
VIDEO:
Codec                   Bitrate             Description
-----                   -------             -----------
MPEG-2 Video            3988 kbps           576i / 25 fps / 16:9
AUDIO:
Codec                           Language        Bitrate         Description
-----                           --------        -------         -----------
Dolby Digital Audio             English         384 kbps        5.1 / 48 kHz / 384 kbps / DN -6dB
SUBTITLES:
Codec                           Language        Bitrate         Description
-----                           --------        -------         -----------
Presentation Graphics           Russian         26,824 kbps
FILES:
Name            Time In         Length          Size            Total Bitrate
----            -------         ------          ----            -------------
00005.M2TS      0:00:00.000     0:07:14.319     252 966 912     4 660
00006.M2TS      0:07:14.319     0:10:58.200     369 598 464     4 492
00007.M2TS      0:18:12.520     0:24:43.719     837 371 904     4 515
00008.M2TS      0:42:56.239     0:37:25.239     1 320 087 552   4 704
CHAPTERS:
Number          Time In         Length          Avg Video Rate  Max 1-Sec Rate  Max 1-Sec Time  Max 5-Sec Rate  Max 5-Sec Time  Max 10Sec Rate  Max 10Sec Time  Avg Frame Size  Max Frame Size  Max Frame Time
------          -------         ------          --------------  --------------  --------------  --------------  --------------  --------------  --------------  --------------  --------------  --------------
1               0:00:00.000     0:07:14.319     3 964 kbps      8 420 kbps      00:04:18.159    6 548 kbps      00:04:15.440    5 310 kbps      00:01:35.920    19 817 bytes    111 412 bytes   00:00:26.279
2               0:07:14.319     0:10:58.200     3 978 kbps      11 145 kbps     00:09:16.479    8 064 kbps      00:09:16.400    6 221 kbps      00:13:48.880    19 888 bytes    132 210 bytes   00:11:36.359
3               0:18:12.520     0:24:43.719     3 993 kbps      9 522 kbps      00:35:59.480    6 246 kbps      00:33:26.360    5 450 kbps      00:33:26.360    19 967 bytes    187 907 bytes   00:41:51.200
4               0:42:56.239     0:37:25.239     3 992 kbps      11 082 kbps     01:18:20.400    7 062 kbps      01:01:00.800    6 022 kbps      00:50:11.120    19 959 bytes    204 758 bytes   01:14:44.200
STREAM DIAGNOSTICS:
File            PID             Type            Codec           Language                Seconds                 Bitrate                 Bytes           Packets
----            ---             ----            -----           --------                --------------          --------------          -------------   -----
00005.M2TS      4113 (0x1011)   0x02            MPEG-2                                  434,240                 3 964                   215 184 408     1 175 903
00005.M2TS      4352 (0x1100)   0x81            AC3             eng (English)           434,240                 384                     20 823 552      122 013
00005.M2TS      4608 (0x1200)   0x90            PGS             rus (Russian)           434,240                 15                      828 893         5 037
00006.M2TS      4113 (0x1011)   0x02            MPEG-2                                  658,080                 3 978                   327 258 218     1 788 266
00006.M2TS      4352 (0x1100)   0x81            AC3             eng (English)           658,080                 192                     15 784 704      102 765
00006.M2TS      4608 (0x1200)   0x90            PGS             rus (Russian)           658,080                 24                      1 962 546       11 892
00007.M2TS      4113 (0x1011)   0x02            MPEG-2                                  1483,600                3 994                   740 623 511     4 046 855
00007.M2TS      4352 (0x1100)   0x81            AC3             eng (English)           1483,600                192                     35 597 568      231 755
00007.M2TS      4608 (0x1200)   0x90            PGS             rus (Russian)           1483,600                30                      5 497 947       32 986
00008.M2TS      4113 (0x1011)   0x02            MPEG-2                                  2245,120                3 992                   1 120 332 381   6 121 741
00008.M2TS      4352 (0x1100)   0x81            AC3             eng (English)           2245,120                384                     107 747 328     631 332
00008.M2TS      4608 (0x1200)   0x90            PGS             rus (Russian)           2245,120                28                      7 876 990       47 138[/spoiler]<---- END FORUMS PASTE ---->
QUICK SUMMARY:
Disc Title: NIGHTMARE_BC_3D_BLUEBIRD
Disc Size: 38 284 996 841 bytes
Protection: AACS
BD-Java: No
Playlist: 00002.MPLS
Size: 2 780 024 832 bytes
Length: 1:20:21
Total Bitrate: 4,61 Mbps
Video: MPEG-2 Video / 3988 kbps / 576i / 25 fps / 16:9
Audio: English / Dolby Digital Audio / 5.1 / 48 kHz / 384 kbps / DN -6dB
Subtitle: Russian / 26,824 kbps
********************
PLAYLIST: 00003.MPLS
********************
<--- BEGIN FORUMS PASTE --->[b]Код:[/b]
Код:
Total   Video
Title                                                           Codec   Length  Movie Size      Disc Size       Bitrate Bitrate Main Audio Track                          Secondary Audio Track
-----                                                           ------  ------- --------------  --------------  ------- ------- ------------------                        ---------------------
00003.MPLS                                                      AVC     1:16:37 21 545 164 800  38 284 996 841  37,49   22,25   DTS-HD Master 7.1 5770Kbps (48kHz/24-bit) DD AC3 5.1 448Kbps[/spoiler][b]Код:[/b]
Код:
DISC INFO:
Disc Title:     NIGHTMARE_BC_3D_BLUEBIRD
Disc Size:      38 284 996 841 bytes
Protection:     AACS
BD-Java:        No
Extras:         Blu-ray 3D
BDInfo:         0.5.6
PLAYLIST REPORT:
Name:                   00003.MPLS
Length:                 1:16:37 (h:m:s)
Size:                   21 545 164 800 bytes
Total Bitrate:          37,49 Mbps
VIDEO:
Codec                   Bitrate             Description
-----                   -------             -----------
MPEG-4 AVC Video        22250 kbps          1080p / 23,976 fps / 16:9 / High Profile 4.1
AUDIO:
Codec                           Language        Bitrate         Description
-----                           --------        -------         -----------
DTS-HD Master Audio             Russian         5770 kbps       7.1 / 48 kHz / 5770 kbps / 24-bit (DTS Core: 5.1 / 48 kHz / 1509 kbps / 24-bit)
Dolby TrueHD Audio              English         4865 kbps       7.1 / 48 kHz / 4865 kbps / 24-bit (AC3 Embedded: 5.1 / 48 kHz / 640 kbps)
Dolby Digital Audio             Russian         448 kbps        5.1 / 48 kHz / 448 kbps / DN -4dB
Dolby Digital Audio             Russian         384 kbps        5.1 / 48 kHz / 384 kbps / DN -4dB
Dolby Digital Audio             English         96 kbps         1.0 / 48 kHz / 96 kbps
SUBTITLES:
Codec                           Language        Bitrate         Description
-----                           --------        -------         -----------
Presentation Graphics           English         36,474 kbps
Presentation Graphics           Russian         36,076 kbps
Presentation Graphics           Russian         54,228 kbps
Presentation Graphics           Russian         0,267 kbps
Presentation Graphics           Ukrainian       32,979 kbps
FILES:
Name            Time In         Length          Size            Total Bitrate
----            -------         ------          ----            -------------
00002.M2TS      0:00:00.000     1:16:37.843     21 545 164 800  37 487
CHAPTERS:
Number          Time In         Length          Avg Video Rate  Max 1-Sec Rate  Max 1-Sec Time  Max 5-Sec Rate  Max 5-Sec Time  Max 10Sec Rate  Max 10Sec Time  Avg Frame Size  Max Frame Size  Max Frame Time
------          -------         ------          --------------  --------------  --------------  --------------  --------------  --------------  --------------  --------------  --------------  --------------
1               0:00:00.000     0:01:19.496     15 861 kbps     38 127 kbps     00:00:30.405    26 790 kbps     00:00:54.137    25 149 kbps     00:00:54.137    82 647 bytes    565 576 bytes   00:00:31.030
2               0:01:19.496     0:05:02.802     22 595 kbps     29 326 kbps     00:01:47.982    27 240 kbps     00:01:27.003    26 964 kbps     00:01:22.040    117 802 bytes   362 505 bytes   00:02:20.598
3               0:06:22.298     0:07:47.633     23 425 kbps     28 514 kbps     00:11:56.841    27 061 kbps     00:13:45.991    26 904 kbps     00:13:56.085    122 126 bytes   407 162 bytes   00:11:51.335
4               0:14:09.932     0:06:43.277     23 888 kbps     28 208 kbps     00:17:57.242    26 977 kbps     00:17:53.238    26 798 kbps     00:15:09.575    124 542 bytes   349 426 bytes   00:18:18.889
5               0:20:53.210     0:05:23.114     22 238 kbps     28 738 kbps     00:23:13.683    27 137 kbps     00:23:09.679    25 922 kbps     00:23:06.385    115 938 bytes   316 114 bytes   00:22:50.952
6               0:26:16.324     0:04:28.017     21 438 kbps     28 157 kbps     00:28:39.300    26 961 kbps     00:27:34.402    26 855 kbps     00:27:36.279    111 767 bytes   328 193 bytes   00:28:30.667
7               0:30:44.342     0:04:50.707     24 546 kbps     29 264 kbps     00:33:24.544    26 956 kbps     00:34:08.254    26 811 kbps     00:34:03.541    127 969 bytes   349 306 bytes   00:34:28.649
8               0:35:35.049     0:03:10.481     24 461 kbps     28 589 kbps     00:36:48.748    27 041 kbps     00:36:13.087    26 913 kbps     00:38:26.470    127 530 bytes   336 619 bytes   00:35:46.102
9               0:38:45.531     0:02:35.947     21 409 kbps     27 699 kbps     00:39:03.799    25 503 kbps     00:39:03.758    24 980 kbps     00:39:02.214    111 615 bytes   291 767 bytes   00:41:21.479
10              0:41:21.479     0:04:21.678     22 666 kbps     29 081 kbps     00:44:24.661    26 899 kbps     00:41:28.861    26 652 kbps     00:41:27.109    118 170 bytes   371 310 bytes   00:44:25.496
11              0:45:43.157     0:02:52.172     23 317 kbps     29 247 kbps     00:46:21.236    26 884 kbps     00:47:16.416    26 825 kbps     00:47:16.416    121 566 bytes   294 873 bytes   00:47:13.121
12              0:48:35.329     0:02:34.612     21 740 kbps     32 532 kbps     00:50:18.682    26 890 kbps     00:50:59.765    26 739 kbps     00:50:54.760    113 342 bytes   362 945 bytes   00:50:06.628
13              0:51:09.941     0:02:18.805     22 506 kbps     27 686 kbps     00:52:47.789    26 870 kbps     00:53:23.116    26 771 kbps     00:53:17.402    117 338 bytes   274 446 bytes   00:51:13.862
14              0:53:28.747     0:01:44.479     26 389 kbps     29 962 kbps     00:55:07.345    27 266 kbps     00:55:03.341    27 030 kbps     00:54:58.336    137 582 bytes   235 076 bytes   00:54:28.265
15              0:55:13.226     0:05:00.925     21 269 kbps     28 744 kbps     00:59:31.484    27 004 kbps     00:59:27.564    26 851 kbps     00:59:29.065    110 886 bytes   310 416 bytes   01:00:03.725
16              1:00:14.152     0:01:48.775     19 092 kbps     28 748 kbps     01:00:48.353    26 912 kbps     01:00:35.548    24 829 kbps     01:00:31.294    99 535 bytes    268 035 bytes   01:01:48.579
17              1:02:02.927     0:03:02.515     20 554 kbps     27 670 kbps     01:02:46.596    25 857 kbps     01:02:43.217    24 542 kbps     01:02:39.380    107 157 bytes   259 850 bytes   01:05:02.899
18              1:05:05.443     0:04:11.167     21 941 kbps     29 416 kbps     01:05:52.365    26 827 kbps     01:07:24.415    26 075 kbps     01:06:42.039    114 391 bytes   303 898 bytes   01:07:55.029
19              1:09:16.610     0:02:36.030     22 134 kbps     27 628 kbps     01:11:44.091    27 077 kbps     01:11:38.544    26 919 kbps     01:11:32.496    115 396 bytes   490 563 bytes   01:11:51.974
20              1:11:52.641     0:04:45.201     18 117 kbps     29 306 kbps     01:16:35.549    27 236 kbps     01:16:31.461    22 682 kbps     01:16:26.832    94 467 bytes    349 870 bytes   01:16:34.923
STREAM DIAGNOSTICS:
File            PID             Type            Codec           Language                Seconds                 Bitrate                 Bytes           Packets
----            ---             ----            -----           --------                --------------          --------------          -------------   -----
00002.M2TS      4113 (0x1011)   0x1B            AVC                                     4597,760                22 251                  12 787 916 312  69 566 412
00002.M2TS      4352 (0x1100)   0x83            TrueHD          eng (English)           4597,760                5 505                   3 163 870 772   20 069 954
00002.M2TS      4353 (0x1101)   0x86            DTS-HD MA       rus (Russian)           4597,760                5 770                   3 316 273 020   18 739 656
00002.M2TS      4354 (0x1102)   0x81            AC3             rus (Russian)           4597,760                448                     257 479 936     1 436 830
00002.M2TS      4355 (0x1103)   0x81            AC3             rus (Russian)           4597,760                384                     220 697 088     1 293 147
00002.M2TS      4356 (0x1104)   0x81            AC3             eng (English)           4597,760                96                      55 174 272      431 049
00002.M2TS      4608 (0x1200)   0x90            PGS             eng (English)           4597,760                36                      20 962 628      120 323
00002.M2TS      4609 (0x1201)   0x90            PGS             rus (Russian)           4597,760                36                      20 733 829      118 576
00002.M2TS      4610 (0x1202)   0x90            PGS             rus (Russian)           4597,760                54                      31 166 608      174 447
00002.M2TS      4611 (0x1203)   0x90            PGS             ukr (Ukrainian)         4597,760                33                      18 954 226      109 037
00002.M2TS      4612 (0x1204)   0x90            PGS             rus (Russian)           4597,760                0                       153 204         892[/spoiler]<---- END FORUMS PASTE ---->
QUICK SUMMARY:
Disc Title: NIGHTMARE_BC_3D_BLUEBIRD
Disc Size: 38 284 996 841 bytes
Protection: AACS
BD-Java: No
Playlist: 00003.MPLS
Size: 21 545 164 800 bytes
Length: 1:16:37
Total Bitrate: 37,49 Mbps
Video: MPEG-4 AVC Video / 22250 kbps / 1080p / 23,976 fps / 16:9 / High Profile 4.1
Audio: Russian / DTS-HD Master Audio / 7.1 / 48 kHz / 5770 kbps / 24-bit (DTS Core: 5.1 / 48 kHz / 1509 kbps / 24-bit)
Audio: English / Dolby TrueHD Audio / 7.1 / 48 kHz / 4865 kbps / 24-bit (AC3 Embedded: 5.1 / 48 kHz / 640 kbps)
Audio: Russian / Dolby Digital Audio / 5.1 / 48 kHz / 448 kbps / DN -4dB
Audio: Russian / Dolby Digital Audio / 5.1 / 48 kHz / 384 kbps / DN -4dB
Audio: English / Dolby Digital Audio / 1.0 / 48 kHz / 96 kbps
Subtitle: English / 36,474 kbps
Subtitle: Russian / 36,076 kbps
Subtitle: Russian / 54,228 kbps
Subtitle: Russian / 0,267 kbps
Subtitle: Ukrainian / 32,979 kbps
********************
PLAYLIST: 00004.MPLS
********************
<--- BEGIN FORUMS PASTE --->[b]Код:[/b]
Код:
Total   Video
Title                                                           Codec   Length  Movie Size      Disc Size       Bitrate Bitrate Main Audio Track                          Secondary Audio Track
-----                                                           ------  ------- --------------  --------------  ------- ------- ------------------                        ---------------------
00004.MPLS                                                      MPEG-2  1:12:39 4 728 035 328   38 284 996 841  8,68    8,00    DD AC3 2.0 192Kbps[/spoiler][b]Код:[/b]
Код:
DISC INFO:
Disc Title:     NIGHTMARE_BC_3D_BLUEBIRD
Disc Size:      38 284 996 841 bytes
Protection:     AACS
BD-Java:        No
Extras:         Blu-ray 3D
BDInfo:         0.5.6
PLAYLIST REPORT:
Name:                   00004.MPLS
Length:                 1:12:39 (h:m:s)
Size:                   4 728 035 328 bytes
Total Bitrate:          8,68 Mbps
VIDEO:
Codec                   Bitrate             Description
-----                   -------             -----------
MPEG-2 Video            8000 kbps           480i / 29,970 fps / 4:3
AUDIO:
Codec                           Language        Bitrate         Description
-----                           --------        -------         -----------
Dolby Digital Audio             English         192 kbps        2.0 / 48 kHz / 192 kbps / DN -5dB
SUBTITLES:
Codec                           Language        Bitrate         Description
-----                           --------        -------         -----------
Presentation Graphics           Russian         6,694 kbps
FILES:
Name            Time In         Length          Size            Total Bitrate
----            -------         ------          ----            -------------
00009.M2TS      0:00:00.000     0:05:53.219     383 354 880     8 683
00010.M2TS      0:05:53.219     0:02:54.574     191 932 416     8 795
00011.M2TS      0:08:47.793     0:03:46.859     245 698 560     8 664
00012.M2TS      0:12:34.653     0:30:03.935     1 956 704 256   8 677
00013.M2TS      0:42:38.589     0:30:00.465     1 950 345 216   8 666
CHAPTERS:
Number          Time In         Length          Avg Video Rate  Max 1-Sec Rate  Max 1-Sec Time  Max 5-Sec Rate  Max 5-Sec Time  Max 10Sec Rate  Max 10Sec Time  Avg Frame Size  Max Frame Size  Max Frame Time
------          -------         ------          --------------  --------------  --------------  --------------  --------------  --------------  --------------  --------------  --------------  --------------
1               0:00:00.000     0:05:53.219     7 999 kbps      9 375 kbps      00:00:07.440    8 281 kbps      00:00:03.436    8 120 kbps      00:04:42.415    33 360 bytes    135 719 bytes   00:03:59.606
2               0:05:53.219     0:02:54.574     7 998 kbps      9 438 kbps      00:06:46.139    8 266 kbps      00:06:42.135    8 139 kbps      00:06:37.130    33 358 bytes    204 962 bytes   00:06:18.211
3               0:08:47.793     0:03:46.859     7 998 kbps      9 218 kbps      00:12:31.751    8 237 kbps      00:12:27.747    8 115 kbps      00:11:22.681    33 360 bytes    101 044 bytes   00:12:17.970
4               0:12:34.653     0:30:03.935     8 000 kbps      9 433 kbps      00:20:37.436    8 279 kbps      00:29:46.284    8 135 kbps      00:23:46.892    33 366 bytes    172 172 bytes   00:19:23.729
5               0:42:38.589     0:30:00.465     8 000 kbps      9 430 kbps      00:43:07.584    8 289 kbps      00:42:40.891    8 142 kbps      00:42:43.961    33 366 bytes    149 912 bytes   01:05:57.853
STREAM DIAGNOSTICS:
File            PID             Type            Codec           Language                Seconds                 Bitrate                 Bytes           Packets
----            ---             ----            -----           --------                --------------          --------------          -------------   -----
00009.M2TS      4113 (0x1011)   0x02            MPEG-2                                  353,119                 8 001                   353 176 530     1 925 668
00009.M2TS      4352 (0x1100)   0x81            AC3             eng (English)           353,119                 192                     8 464 896       55 110
00009.M2TS      4608 (0x1200)   0x90            PGS             rus (Russian)           353,119                 15                      655 833         3 992
00010.M2TS      4113 (0x1011)   0x02            MPEG-2                                  174,508                 8 001                   174 531 396     951 626
00010.M2TS      4352 (0x1100)   0x81            AC3             eng (English)           174,508                 191                     4 175 616       27 185
00010.M2TS      4608 (0x1200)   0x90            PGS             rus (Russian)           174,508                 38                      830 481         4 986
00011.M2TS      4113 (0x1011)   0x02            MPEG-2                                  226,793                 8 001                   226 816 963     1 236 736
00011.M2TS      4352 (0x1100)   0x81            AC3             eng (English)           226,793                 191                     5 420 544       35 290
00011.M2TS      4608 (0x1200)   0x90            PGS             rus (Russian)           226,793                 0                       3 762           28
00012.M2TS      4113 (0x1011)   0x02            MPEG-2                                  1803,869                8 000                   1 803 892 463   9 835 595
00012.M2TS      4352 (0x1100)   0x81            AC3             eng (English)           1803,869                192                     43 282 176      281 785
00012.M2TS      4608 (0x1200)   0x90            PGS             rus (Russian)           1803,869                10                      2 153 421       13 311
00013.M2TS      4113 (0x1011)   0x02            MPEG-2                                  1800,365                8 000                   1 800 422 330   9 816 739
00013.M2TS      4352 (0x1100)   0x81            AC3             eng (English)           1800,365                192                     43 152 384      280 940
00013.M2TS      4608 (0x1200)   0x90            PGS             rus (Russian)           1800,365                0                       3 762           28[/spoiler]<---- END FORUMS PASTE ---->
QUICK SUMMARY:
Disc Title: NIGHTMARE_BC_3D_BLUEBIRD
Disc Size: 38 284 996 841 bytes
Protection: AACS
BD-Java: No
Playlist: 00004.MPLS
Size: 4 728 035 328 bytes
Length: 1:12:39
Total Bitrate: 8,68 Mbps
Video: MPEG-2 Video / 8000 kbps / 480i / 29,970 fps / 4:3
Audio: English / Dolby Digital Audio / 2.0 / 48 kHz / 192 kbps / DN -5dB
Subtitle: Russian / 6,694 kbps
********************
PLAYLIST: 00001.MPLS
********************
<--- BEGIN FORUMS PASTE --->[b]Код:[/b]
Код:
Total   Video
Title                                                           Codec   Length  Movie Size      Disc Size       Bitrate Bitrate Main Audio Track                          Secondary Audio Track
-----                                                           ------  ------- --------------  --------------  ------- ------- ------------------                        ---------------------
00001.MPLS                                                      AVC     0:01:19 146 018 304     38 284 996 841  14,73   11,97   DD AC3 5.1 384Kbps                        DD AC3 5.1 384Kbps[/spoiler][b]Код:[/b]
Код:
DISC INFO:
Disc Title:     NIGHTMARE_BC_3D_BLUEBIRD
Disc Size:      38 284 996 841 bytes
Protection:     AACS
BD-Java:        No
Extras:         Blu-ray 3D
BDInfo:         0.5.6
PLAYLIST REPORT:
Name:                   00001.MPLS
Length:                 0:01:19 (h:m:s)
Size:                   146 018 304 bytes
Total Bitrate:          14,73 Mbps
VIDEO:
Codec                   Bitrate             Description
-----                   -------             -----------
MPEG-4 AVC Video        11972 kbps          1080p / 23,976 fps / 16:9 / High Profile 4.1
AUDIO:
Codec                           Language        Bitrate         Description
-----                           --------        -------         -----------
Dolby Digital Audio             English         384 kbps        5.1 / 48 kHz / 384 kbps / DN -6dB
Dolby Digital Audio             English         384 kbps        5.1 / 48 kHz / 384 kbps / DN -6dB
Dolby Digital Audio             English         384 kbps        5.1 / 48 kHz / 384 kbps / DN -6dB
Dolby Digital Audio             English         384 kbps        5.1 / 48 kHz / 384 kbps / DN -6dB
Dolby Digital Audio             English         384 kbps        5.1 / 48 kHz / 384 kbps / DN -6dB
SUBTITLES:
Codec                           Language        Bitrate         Description
-----                           --------        -------         -----------
Presentation Graphics           English         0,295 kbps
Presentation Graphics           English         0,295 kbps
Presentation Graphics           English         0,295 kbps
Presentation Graphics           English         1,365 kbps
Presentation Graphics           English         1,365 kbps
FILES:
Name            Time In         Length          Size            Total Bitrate
----            -------         ------          ----            -------------
00040.M2TS      0:00:00.000     0:00:45.086     98 887 680      17 546
00004.M2TS      0:00:45.086     0:00:34.200     47 130 624      11 024
CHAPTERS:
Number          Time In         Length          Avg Video Rate  Max 1-Sec Rate  Max 1-Sec Time  Max 5-Sec Rate  Max 5-Sec Time  Max 10Sec Rate  Max 10Sec Time  Avg Frame Size  Max Frame Size  Max Frame Time
------          -------         ------          --------------  --------------  --------------  --------------  --------------  --------------  --------------  --------------  --------------  --------------
1               0:00:00.000     0:01:19.287     11 972 kbps     38 867 kbps     00:00:06.423    34 063 kbps     00:00:05.505    32 337 kbps     00:00:00.625    62 418 bytes    552 623 bytes   00:00:24.024
STREAM DIAGNOSTICS:
File            PID             Type            Codec           Language                Seconds                 Bitrate                 Bytes           Packets
----            ---             ----            -----           --------                --------------          --------------          -------------   -----
00040.M2TS      4113 (0x1011)   0x1B            AVC                                     45,003                  14 697                  82 674 284      449 963
00040.M2TS      4352 (0x1100)   0x81            AC3             eng (English)           45,003                  385                     2 164 224       12 681
00040.M2TS      4353 (0x1101)   0x81            AC3             eng (English)           45,003                  385                     2 164 224       12 681
00040.M2TS      4354 (0x1102)   0x81            AC3             eng (English)           45,003                  385                     2 164 224       12 681
00040.M2TS      4355 (0x1103)   0x81            AC3             eng (English)           45,003                  385                     2 164 224       12 681
00040.M2TS      4356 (0x1104)   0x81            AC3             eng (English)           45,003                  385                     2 164 224       12 681
00040.M2TS      4608 (0x1200)   0x90            PGS             eng (English)           45,003                  0                       1 462           15
00040.M2TS      4609 (0x1201)   0x90            PGS             eng (English)           45,003                  0                       1 462           15
00040.M2TS      4610 (0x1202)   0x90            PGS             eng (English)           45,003                  0                       1 462           15
00040.M2TS      4611 (0x1203)   0x90            PGS             eng (English)           45,003                  1                       6 762           44
00040.M2TS      4612 (0x1204)   0x90            PGS             eng (English)           45,003                  1                       6 762           44
00004.M2TS      4113 (0x1011)   0x1B            AVC                                     34,117                  8 437                   35 981 752      196 043
00004.M2TS      4352 (0x1100)   0x81            AC3             eng (English)           34,117                  385                     1 641 984       9 621
00004.M2TS      4353 (0x1101)   0x81            AC3             eng (English)           34,117                  385                     1 641 984       9 621
00004.M2TS      4354 (0x1102)   0x81            AC3             eng (English)           34,117                  385                     1 641 984       9 621
00004.M2TS      4355 (0x1103)   0x81            AC3             eng (English)           34,117                  385                     1 641 984       9 621
00004.M2TS      4356 (0x1104)   0x81            AC3             eng (English)           34,117                  385                     1 641 984       9 621
00004.M2TS      4608 (0x1200)   0x90            PGS             eng (English)           34,117                  0                       1 462           15
00004.M2TS      4609 (0x1201)   0x90            PGS             eng (English)           34,117                  0                       1 462           15
00004.M2TS      4610 (0x1202)   0x90            PGS             eng (English)           34,117                  0                       1 462           15
00004.M2TS      4611 (0x1203)   0x90            PGS             eng (English)           34,117                  2                       6 762           44
00004.M2TS      4612 (0x1204)   0x90            PGS             eng (English)           34,117                  2                       6 762           44[/spoiler]<---- END FORUMS PASTE ---->
QUICK SUMMARY:
Disc Title: NIGHTMARE_BC_3D_BLUEBIRD
Disc Size: 38 284 996 841 bytes
Protection: AACS
BD-Java: No
Playlist: 00001.MPLS
Size: 146 018 304 bytes
Length: 0:01:19
Total Bitrate: 14,73 Mbps
Video: MPEG-4 AVC Video / 11972 kbps / 1080p / 23,976 fps / 16:9 / High Profile 4.1
Audio: English / Dolby Digital Audio / 5.1 / 48 kHz / 384 kbps / DN -6dB
Audio: English / Dolby Digital Audio / 5.1 / 48 kHz / 384 kbps / DN -6dB
Audio: English / Dolby Digital Audio / 5.1 / 48 kHz / 384 kbps / DN -6dB
Audio: English / Dolby Digital Audio / 5.1 / 48 kHz / 384 kbps / DN -6dB
Audio: English / Dolby Digital Audio / 5.1 / 48 kHz / 384 kbps / DN -6dB
Subtitle: English / 0,295 kbps
Subtitle: English / 0,295 kbps
Subtitle: English / 0,295 kbps
Subtitle: English / 1,365 kbps
Subtitle: English / 1,365 kbps[/spoiler][spoiler="Скриншоты меню"]
[b]Скриншоты меню[/b]
[url=http://www.phyrefile.com/image/view/nKwA9u1cMgk2bcw8][img]http://thumb.phyrefile.com/h/hd/hdtvshek/2011/09/07/300/menu_xmas__1_.png[/img][/url][url=http://www.phyrefile.com/image/view/qTihwAIqtCZZhCTI][img]http://thumb.phyrefile.com/h/hd/hdtvshek/2011/09/07/300/menu_xmas__2_.png[/img][/url][url=http://www.phyrefile.com/image/view/G79WNBgrZF1ATIQs][img]http://thumb.phyrefile.com/h/hd/hdtvshek/2011/09/07/300/easteregg_xmas.png[/img][/url][/spoiler][spoiler="Скриншоты"]
[b]Скриншоты[/b]
[url=http://www.phyrefile.com/image/view/qfssTbbbdRlwa8WI][img]http://thumb.phyrefile.com/h/hd/hdtvshek/2011/09/07/300/scr_NBXMAS__4_.png[/img][/url][url=http://www.phyrefile.com/image/view/kFmEd1diS0339iXt][img]http://thumb.phyrefile.com/h/hd/hdtvshek/2011/09/07/300/scr_NBXMAS__3_.png[/img][/url][url=http://www.phyrefile.com/image/view/NJZBPWqbYsjBH2Ra][img]http://thumb.phyrefile.com/h/hd/hdtvshek/2011/09/07/300/scr_NBXMAS__8_.png[/img][/url][/spoiler][spoiler="Аннотация"]
[b]Аннотация[/b]
Диск пересобран из оригинального блурэя, используемое програмное обеспечение: BD Reauthor от DVDLogic Software ([url=http://www.dvd-logic.com]http://www.dvd-logic.com[/url]) и Sonic Scenarist BD, Adobe Photoshop, SubRip, SubtitleWorkshop, Sony Sound Forge, Eac3to, DTS-HD Suite. Структура диска изменена для возможности воспроизведения не только в 3Д, но и в 2Д.
Воспроизведение проверено на Arcsoft Total Media Player 5, Arcsoft Total Media Player 3, Power DVD10, Scenarist QC 1.5, Dune BD-Prime 3.0 и бытовом блурей плеере LG BX-580.
Русский DTS-HD МА получен микшированием чистых голосов переводчиков с каналом оригинальной ХД дорожки.
Форсированные субтитры (полностью отключаемые в случае ненадобности) задействуются на ту или иную дорожку автоматически.
При выборе субтитров комментариев - автоматически включится дорожка комментариев.[/spoiler]Релиз [img]http://bluebird-hd.org/pic/group_blubird.png[/img] Релиз-группа [img]http://hdtvshek.net/uploads/CMEGroup.gif[/img]



Вернуться к началу
 Профиль Отправить личное сообщение  
 
   Похожие торренты   Автор   Торрент   Размер 
В этой теме нет новых непрочитанных сообщений. Кошмар на улице Вязов / A Nightmare on Elm Street [ужасы, триллер, фэнтези, 2010] BDRip-HEVC 1080p, Dub

salma3

0 | 0

4.26 ГБ

В этой теме нет новых непрочитанных сообщений. Генри и Джун / Henry &amp; June [драма, биография, 1990] BDRemux 1080p, Mvo

salma3

19 | 6

35.07 ГБ

В этой теме нет новых непрочитанных сообщений. Кошмар на улице Вязов / A Nightmare on Elm Street [ужасы, 1984] BDRip-HEVC 1080p, Mvo

salma3

0 | 1

5.63 ГБ

В этой теме нет новых непрочитанных сообщений. Книга Генри / The Book of Henry [Драма, Криминал, Триллер, 2017] BDRip 1080p, Dub

salma3

243 | 869

10.89 ГБ

В этой теме нет новых непрочитанных сообщений. Кошмар на улице Вязов 3: Воины сна / A Nightmare on Elm Street 3: Dream Warriors [ужасы, 1987] BDRip-HEVC 1080p, Mvo

salma3

0 | 0

6.94 ГБ

В этой теме нет новых непрочитанных сообщений. Кошмар на улице Вязов 6: Фредди мертв / Freddy's Dead: The Final Nightmare [ужасы, 1991] BDRip-HEVC 1080p, Mvo

salma3

0 | 0

5.81 ГБ

В этой теме нет новых непрочитанных сообщений. Изощренный кошмар / Twisted Nightmare [ужасы, 1987] HDRip, Avo

salma3

65 | 13

1.47 ГБ


Начать новую тему Ответить на тему  [ 1 сообщение ] 




Для Мосгорсуда, Роскомнадзора и рекламодателей:: mosgorsud-torrent[собачка]yandex.ru
cron