Торрент файл
скачать торрент магнет ссылка Добавлен: 02 фев 2012, 17:46
Размер: 5.72 ГБ
Сидеров: 15
Личеров: 6
Автор

СообщениеДобавлено: 02 фев 2012, 17:46 

Не в сети
Супермодератор
Аватара пользователя
Дата регистрации:
14 июн 2010, 21:00
Возраст: 29
Спасибо: 1341 / 1
Сообщения: 5611
Откуда: НиНО
Легенды ночных стражей 3D / Legend of the Guardians: The Owls of Ga’Hoole 3D
Год выпуска: 2010
Страна: США / Австралия
Студия: Warner Bros. Pictures / Animal Logic
Жанр: фэнтези, приключения, мультфильм
Продолжительность: 01:36:47
Перевод: Профессиональный (дублированный)
Русские субтитры: нет
Режиссер на русском: Зак Снайдер
В ролях: Джим Стерджесс, Джоэл Эдгертон, Хьюго Уивинг, Эдриэнн ДеФариа, Ричард Роксбург, Дэвид Уэнэм, Хелен Миррен, Мириам Марголис, Сэм Нил, Джеффри Раш
Описание: Миром, в котором уже не осталось людей, правят совы… добрые… злые… как и всегда! В волшебном лесу - королевстве сов Тито - на Великом Дереве Га`Хуул, где разумные совы живут в гармонии, наступают мрачные времена. Королевство подвергается страшной опасности со стороны соседних жестоких правителей, и эта опасность грозит уничтожить привычное мироздание.
Качество: BDrip
Контейнер: MKV
Формат 3D: Анаглиф red-cyan (Дюбуа)
Порядок ракурсов: левый ракурс первый
Видео кодек: h.264
Аудио кодек: AC3
Видео: CCV1 1920x1080 23.98fps 7 654 Kbps
Аудио: Русский / Дублированный Dolby AC3 48000Hz 6ch 640 Kbps
MediaInfo
General
Format : Matroska
Format version : Version 2
File size : 5.72 GiB
Duration : 1h 36mn
Overall bit rate : 8 462 Kbps
Encoded date : UTC 2012-01-30 11:19:04
Writing application : mkvmerge v4.3.0 ('Escape from the Island') сборка от Sep 5 2010 10:30:51
Writing library : libebml v1.0.0 + libmatroska v1.0.0
Video
ID : 1
Format : AVC
Format/Info : Advanced Video Codec
Format profile : [email protected]
Format settings, CABAC : Yes
Format settings, ReFrames : 4 frames
Codec ID : V_MPEG4/ISO/AVC
Duration : 1h 36mn
Bit rate : 7 654 Kbps
Width : 1 920 pixels
Height : 1 080 pixels
Display aspect ratio : 16:9
Frame rate : 23.976 fps
Color space : YUV
Chroma subsampling : 4:2:0
Bit depth : 8 bits
Scan type : Progressive
Bits/(Pixel*Frame) : 0.154
Stream size : 5.18 GiB (90%)
Writing library : x264 core 115 r1995 c1e60b9
Encoding settings : cabac=1 / ref=4 / deblock=1:-2:-2 / analyse=0x3:0x113 / me=umh / subme=9 / psy=1 / psy_rd=1.00:0.15 / mixed_ref=1 / me_range=16 / chroma_me=1 / trellis=2 / 8x8dct=1 / cqm=0 / deadzone=21,11 / fast_pskip=1 / chroma_qp_offset=-3 / threads=6 / sliced_threads=0 / nr=0 / decimate=1 / interlaced=0 / bluray_compat=0 / constrained_intra=0 / bframes=6 / b_pyramid=0 / b_adapt=2 / b_bias=0 / direct=3 / weightb=1 / open_gop=0 / weightp=2 / keyint=250 / keyint_min=23 / scenecut=40 / intra_refresh=0 / rc_lookahead=40 / rc=crf / mbtree=1 / crf=18.0 / qcomp=0.60 / qpmin=10 / qpmax=69 / qpstep=4 / ip_ratio=1.40 / aq=1:1.00
Audio
ID : 2
Format : AC-3
Format/Info : Audio Coding 3
Mode extension : CM (complete main)
Codec ID : A_AC3
Duration : 1h 36mn
Bit rate mode : Constant
Bit rate : 640 Kbps
Channel(s) : 6 channels
Channel positions : Front: L C R, Side: L R, LFE
Sampling rate : 48.0 KHz
Bit depth : 16 bits
Compression mode : Lossy
Stream size : 443 MiB (8%)
Скриншоты
Внимание! Для просмотра нужны анаглифные очки красно-синезеленые
Другие мои раздачи в Анаглифе Дюбуа



Вернуться к началу
 Профиль Отправить личное сообщение  
 
   Похожие торренты   Автор   Торрент   Размер 
В этой теме нет новых непрочитанных сообщений. Мой маленький пони: Девочки из Эквестрии - Легенды вечнозеленого леса / My Little Pony: Equestria Girls - Legend of Everfree [приключения, семейный, фэнтези, 2016] WEB-DLRip 1080p, Dub [Карусель]

salma3

411 | 40

2.95 ГБ

В этой теме нет новых непрочитанных сообщений. Меч короля Артура / King Arthur: Legend of the Sword [фэнтези, боевик, драма, приключения, 2017] BDRip 1080p, Dub [iTunes]

salma3

13670 | 8859

9.52 ГБ

В этой теме нет новых непрочитанных сообщений. Меч короля Артура / King Arthur: Legend of the Sword [Фэнтези, Боевик, Драма, Приключения, 2017] BDRip 1080p, Dub [3D-Video] [Лицензия]

salma3

390 | 280

15.82 ГБ

В этой теме нет новых непрочитанных сообщений. Меч короля Артура / King Arthur: Legend of the Sword [2017] ( Гай Ричи) [Фэнтези, боевик, драма, приключения] [:BDRip] [1080p] [DD5.1] [Dub Rus,Ukr,Englis + Subs Rus ,Ukr, ENG] [ iTunes]

Враг Нароода

2 | 4

22.89 ГБ

В этой теме нет новых непрочитанных сообщений. Городские легенды / Urban Legend [Триллер, Детектив, 1998] BDRip-AVC, Mvo

salma3

8 | 4

2.17 ГБ

В этой теме нет новых непрочитанных сообщений. Приключения олененка Рудольфа / Rudolph, the Red-Nosed Reindeer [мультфильм, мюзикл, фэнтези, приключения, семейный, 1964] BDRip 1080p, Mvo

salma3

7 | 4

3.62 ГБ

В этой теме нет новых непрочитанных сообщений. Стражи Галактики. Часть 2 / Guardians of the Galaxy Vol. 2 [Фантастика, боевик, приключения, 2017] BDRip 1080p, Dub [Лицензия]

salma3

7 | 12

13.42 ГБ


Начать новую тему Ответить на тему  [ 1 сообщение ] 




Для Мосгорсуда, Роскомнадзора и рекламодателей:: mosgorsud-torrent[собачка]yandex.ru
cron