Торрент файл
скачать торрент магнет ссылка Добавлен: 02 фев 2012, 17:46
Размер: 5.09 ГБ
Сидеров: 14
Личеров: 7
Автор

СообщениеДобавлено: 02 фев 2012, 17:46 

Не в сети
Супермодератор
Аватара пользователя
Дата регистрации:
14 июн 2010, 21:00
Возраст: 30
Спасибо: 1341 / 1
Сообщения: 5611
Откуда: НиНО
Красавица и чудовище 3D / Beauty and the Beast 3D
Год выпуска: 1991
Страна: США
Студия: Walt Disney Pictures
Жанр: Мультфильм, Мюзикл, Фэнтези, Мелодрама, Семейный
Продолжительность: 01:24:52
Перевод: Профессиональный (дублированный)
Русские субтитры: нет
Режиссеры: Гари Труздейл, Кирк Уайз / Gary Trousdale, Kirk Wise
Роли дублировали / Озвучивали::
Рассказчик - Валерий Никитенко / David Ogden Stiers
Бэлль - Сауле Искакова / Paige O'Hara
Чудовище - Олег Куликович, Александр Никифоров (вокал) / Robby Benson
Гастон - Андрей Тенетко / Richard White
Люмьер - Виктор Костецкий / Jerry Orbach
Когсуорт - Игорь Шибанов / David Ogden Stiers
Миссис Поттс - Елена Дриацкая / Angela Lansbury
Чип - Артем Сергеев / Bradley Pierce
Морис - Николай Федорцов / Rex Everhart
Лефу - Андрей Матвеев / Jesse Corti
Описание: Фильм приглашает в зачарованный замок, скрытый в чаще темного волшебного леса. Его хозяин ужасное Чудовище, которого все боятся и ненавидят. Лишь самая прекрасная и смелая девушка в мире по имени Белль способна разгадать тайну страшного, а на самом деле, очень несчастного хозяина замка и разрушить чары, обрекшие его на вечное пребывание в шкуре жуткого зверя.
Только тот, кто растопит лед в сердце чудовища и сможет полюбить его таким, какой он есть, сможет вернуть ему человеческий облик, но, чтобы спасти хозяина зачарованного замка, Белль придется выступить против всех: ведь жители ее деревни, подстрекаемые злобным охотником Гастоном, хотят погубить гордое и доброе Чудовище…
Качество: BDrip
Контейнер: MKV
Формат 3D: Анаглиф red-cyan (Дюбуа)
Порядок ракурсов: левый ракурс первый
Видео кодек: h.264
Аудио кодек: AC3
Видео: CCV1 1920x1080 23.98fps 8 028 Kbps
Аудио: Русский / Дублированный Dolby AC3 48000Hz 6ch 384 Kbps
MediaInfo
General
Format : Matroska
Format version : Version 2
File size : 5.09 GiB
Duration : 1h 24mn
Overall bit rate : 8 583 Kbps
Encoded date : UTC 2012-01-31 15:18:56
Writing application : mkvmerge v4.4.0 ('Die Wiederkehr') сборка от Oct 31 2010 21:52:48
Writing library : libebml v1.0.0 + libmatroska v1.0.0
Video
ID : 1
Format : AVC
Format/Info : Advanced Video Codec
Format profile : [email protected]
Format settings, CABAC : Yes
Format settings, ReFrames : 4 frames
Codec ID : V_MPEG4/ISO/AVC
Duration : 1h 24mn
Bit rate : 8 028 Kbps
Width : 1 920 pixels
Height : 1 080 pixels
Display aspect ratio : 16:9
Frame rate : 23.976 fps
Color space : YUV
Chroma subsampling : 4:2:0
Bit depth : 8 bits
Scan type : Progressive
Bits/(Pixel*Frame) : 0.161
Stream size : 4.76 GiB (94%)
Title : Anaglyph Dubois by Boss-Master
Writing library : x264 core 115 r1995 c1e60b9
Encoding settings : cabac=1 / ref=4 / deblock=1:-2:-2 / analyse=0x3:0x113 / me=umh / subme=9 / psy=1 / psy_rd=1.00:0.15 / mixed_ref=1 / me_range=16 / chroma_me=1 / trellis=2 / 8x8dct=1 / cqm=0 / deadzone=21,11 / fast_pskip=1 / chroma_qp_offset=-3 / threads=6 / sliced_threads=0 / nr=0 / decimate=1 / interlaced=0 / bluray_compat=0 / constrained_intra=0 / bframes=6 / b_pyramid=0 / b_adapt=2 / b_bias=0 / direct=3 / weightb=1 / open_gop=0 / weightp=2 / keyint=250 / keyint_min=23 / scenecut=40 / intra_refresh=0 / rc_lookahead=40 / rc=crf / mbtree=1 / crf=18.0 / qcomp=0.60 / qpmin=10 / qpmax=69 / qpstep=4 / ip_ratio=1.40 / aq=1:1.00
Audio
ID : 2
Format : AC-3
Format/Info : Audio Coding 3
Mode extension : CM (complete main)
Codec ID : A_AC3
Duration : 1h 24mn
Bit rate mode : Constant
Bit rate : 384 Kbps
Channel(s) : 6 channels
Channel positions : Front: L C R, Side: L R, LFE
Sampling rate : 48.0 KHz
Bit depth : 16 bits
Compression mode : Lossy
Delay relative to video : 500ms
Stream size : 233 MiB (4%)
Скриншоты
Внимание! Для просмотра нужны анаглифные очки красно-синезеленые
Другие мои раздачи в Анаглифе Дюбуа



Вернуться к началу
 Профиль Отправить личное сообщение  
 
   Похожие торренты   Автор   Торрент   Размер 
В этой теме нет новых непрочитанных сообщений. Красавица и чудовище / Beauty and the Beast [Мюзикл, фэнтези, мелодрама, 2017] BDRip 1080p, Dub [Лицензия]

salma3

413 | 785

8.38 ГБ

В этой теме нет новых непрочитанных сообщений. Красавица и чудовище / Beauty and the Beast [Мюзикл, фэнтези, мелодрама, 2017] BDRip 1080p, Dub [Лицензия] [3D-Video]

salma3

75 | 117

9.26 ГБ

В этой теме нет новых непрочитанных сообщений. Красавица и чудовище / Beauty and the Beast [мюзикл, фэнтези, мелодрама, семейный, 2017] CAMRip, Dub

salma3

9270 | 1891

2.05 ГБ

В этой теме нет новых непрочитанных сообщений. Красавица и чудовище / Beauty and the Beast [Мюзикл, фэнтези, мелодрама, семейный, 2017] DVD5, Dub

salma3

95 | 28

4.37 ГБ

В этой теме нет новых непрочитанных сообщений. Красавица и чудовище / Beauty and the Beast [Мюзикл, фэнтези, мелодрама, 2017] BDRip-AVC, Dub [Лицензия]

salma3

139 | 51

2.84 ГБ

В этой теме нет новых непрочитанных сообщений. Красавица и чудовище / Beauty and the Beast [Мюзикл, фэнтези, мелодрама, 2017] BDRip, Dub [iTunes]

salma3

13592 | 2176

1.46 ГБ

В этой теме нет новых непрочитанных сообщений. Красавица и чудовище / Beauty and the Beast [Мюзикл, фэнтези, мелодрама, 2017] BDRip, Dub [Лицензия]

salma3

322 | 82

2.18 ГБ


Начать новую тему Ответить на тему  [ 1 сообщение ] 




Для Мосгорсуда, Роскомнадзора и рекламодателей:: mosgorsud-torrent[собачка]yandex.ru
cron