Торрент файл
скачать торрент магнет ссылка Добавлен: 28 май 2018, 20:39
Размер: 14.53 ГБ
Сидеров: 76
Личеров: 36
Автор

СообщениеДобавлено: 28 май 2018, 20:39 

Не в сети
Супермодератор
Аватара пользователя
Дата регистрации:
15 фев 2012, 16:44
Возраст: 28
Спасибо: 7204 / 2147
Сообщения: 65100
Год выпуска: 2018
Страна: Китай, Гонконг (Filmko Film Co., Filmko Pictures, Shanghai Hanna Pictures Ltd.)
Жанр: фэнтези, боевик, приключения, комедия
Продолжительность: 01:54:01

Перевод: Любительский многоголосый закадровый - Колобок

Режиссер: Чин Поу-Сои / Cheang Pou-Soi



Роли исполняли:



Аарон Квок (Sun Wukong), Уильям Фэн (Tangseng), Чжао Лиин (Nü'erguo guowang), Сяо Шэньян (Zhu Bajie), Ло Чун-Хим (Shaseng), Чэнь Я-ли (Ying Luo), Джиджи Люн (Chang'E), Линь Чилин (Hebo), Лю Тао (Guanyin), Сунь Ихань, Юэнь Кин-Тань (Priest)



Описание: Путешествие героев приводит их в страну, где живут только женщины. Пророчество гласит, что пришедшие мужчины принесут стране разрушение, поэтому местная правительница приказывает казнить чужаков. Но на её дочь уже начал действовать любовный яд, и та спасает пленников.



Доп. инфо: Русская дорога сделана из дороги Кошары (спасибо им за исходник!).



Премьера (мир): 14 февраля 2018
Бюджет: $73 000 000
Кассовые сборы: $115 084 576





Качество: BDRip (by Ash61)
Контейнер: MKV
Формат 3D: Half OverUnder / Вертикальная анаморфная стереопара
Порядок ракурсов: левый ракурс первый



Видео: AVC / 1920х1080p / 23,976 fps / 17.0 Mbps

Аудио:
#1 - Русский / AC3 / 48 KHz / 5.1 ch / 640 Kbps (MVO - Колобок) (работа с дорогой - Ash61)
#2 - Китайский / AC3 / 48 KHz / 5.1 ch / 640 Kbps (Original - BD 3D Chi)

Субтитры: Внешние (SRT UTF-8) English Full

General
Unique ID : 224813950140375539953013916291180564176 (0xA92197836CBDA942A172F4A21D8C8ED0)
Complete name : D:TheMonkeyKing3(2018)3D-halfOU(Ash61)MVOTheMonkeyKing3(2018)3D-halfOU(Ash61)MVO.mkv
Format : Matroska
Format version : Version 2
File size : 14.5 GiB
Duration : 1h 54mn
Overall bit rate : 18.2 Mbps
Movie name : Царь обезьян: Царство женщин / Xi you ji zhi nü er guo / The Monkey King 3: Kingdom of Women (2018) in 3D
Encoded date : UTC 2018-05-25 00:07:50
Writing application : mkvmerge v5.8.0 ('No Sleep / Pillow') built on Sep 2 2012 15:37:04
Writing library : libebml v1.2.3 + libmatroska v1.3.0

Video
ID : 1
Format : AVC
Format/Info : Advanced Video Codec
Format profile : [email protected]
Format settings, CABAC : Yes
Format settings, ReFrames : 4 frames
Codec ID : V_MPEG4/ISO/AVC
Duration : 1h 54mn
Bit rate : 17.0 Mbps
Width : 1 920 pixels
Height : 1 080 pixels
Display aspect ratio : 16:9
Frame rate mode : Constant
Frame rate : 23.976 (24000/1001) fps
Color space : YUV
Chroma subsampling : 4:2:0
Bit depth : 8 bits
Scan type : Progressive
Bits/(Pixel*Frame) : 0.342
Stream size : 13.2 GiB (91%)
Title : BDRip by Ash61
Writing library : x264 core 146 r2538 121396c
Encoding settings : cabac=1 / ref=4 / deblock=1:-3:-3 / analyse=0x3:0x113 / me=umh / subme=10 / psy=1 / psy_rd=1.00:0.00 / mixed_ref=1 / me_range=32 / chroma_me=1 / trellis=2 / 8x8dct=1 / cqm=0 / deadzone=21,11 / fast_pskip=0 / chroma_qp_offset=-2 / threads=12 / lookahead_threads=3 / sliced_threads=0 / nr=0 / decimate=0 / interlaced=0 / bluray_compat=0 / constrained_intra=0 / bframes=10 / b_pyramid=2 / b_adapt=2 / b_bias=0 / direct=3 / weightb=1 / open_gop=0 / weightp=2 / keyint=250 / keyint_min=23 / scenecut=40 / intra_refresh=0 / rc_lookahead=60 / rc=2pass / mbtree=0 / bitrate=17000 / ratetol=1.0 / qcomp=0.70 / qpmin=0 / qpmax=69 / qpstep=4 / cplxblur=20.0 / qblur=0.5 / vbv_maxrate=40000 / vbv_bufsize=30000 / nal_hrd=none / filler=0 / frame-packing=4 / ip_ratio=1.40 / pb_ratio=1.30 / aq=1:0.70
Language : Chinese
Default : Yes
Forced : No

Audio #1
ID : 2
Format : AC-3
Format/Info : Audio Coding 3
Mode extension : CM (complete main)
Format settings, Endianness : Big
Codec ID : A_AC3
Duration : 1h 54mn
Bit rate mode : Constant
Bit rate : 640 Kbps
Channel(s) : 6 channels
Channel positions : Front: L C R, Side: L R, LFE
Sampling rate : 48.0 KHz
Frame rate : 31.250 fps (1536 spf)
Compression mode : Lossy
Stream size : 522 MiB (4%)
Title : MVO - Колобок (монтаж Ash61)
Language : Russian
Default : Yes
Forced : No

Audio #2
ID : 3
Format : AC-3
Format/Info : Audio Coding 3
Mode extension : CM (complete main)
Format settings, Endianness : Big
Codec ID : A_AC3
Duration : 1h 54mn
Bit rate mode : Constant
Bit rate : 640 Kbps
Channel(s) : 6 channels
Channel positions : Front: L C R, Side: L R, LFE
Sampling rate : 48.0 KHz
Frame rate : 31.250 fps (1536 spf)
Compression mode : Lossy
Stream size : 522 MiB (4%)
Title : Original - BD 3D Chi
Language : Chinese
Default : No
Forced : No

Menu
00:00:00.000 : :1
00:05:04.513 : :2
00:09:29.778 : :3
00:13:46.367 : :4
00:17:21.374 : :5
00:21:17.234 : :6
00:27:03.747 : :7
00:31:02.778 : :8
00:36:00.825 : :9
00:41:05.922 : :10
00:48:14.683 : :11
00:56:12.286 : :12
01:01:52.584 : :13
01:06:38.995 : :14
01:14:13.074 : :15
01:21:37.059 : :16
01:29:13.723 : :17
01:38:52.969 : :18
01:44:48.157 : :19
01:47:12.551 : :20



_________________
Проголосуй за трекер Открытый торрент трекер - RUS-MEDIA.ORG

Проголосуй Открытый торрент трекер - RUS-MEDIA.ORG


Вернуться к началу
 Профиль Отправить личное сообщение  
 
   Похожие торренты   Автор   Торрент   Размер 
В этой теме нет новых непрочитанных сообщений. Царь обезьян: Начало легенды / Король обезьян 2 / Xi you ji zhi: Sun Wukong san da Baigu Jing [Фэнтези, боевик, приключения, 2016] HDRip, Dvo

salma3

481 | 31

1.46 ГБ

В этой теме нет новых непрочитанных сообщений. Царь обезьян: начало легенды / Xi you ji zhi: Sun Wukong san da Baigu Jing [фэнтези, боевик, приключения, 2016] BD Remux 1080p, Dvo

salma3

10 | 3

20.77 ГБ

В этой теме нет новых непрочитанных сообщений. Царь скорпионов / The Scorpion King [фэнтези, боевик, триллер, 2002] BDRip 1080p, Dub+Sub

salma3

31 | 17

4.37 ГБ

В этой теме нет новых непрочитанных сообщений. Запретное царство / The Forbidden Kingdom [Фэнтези, боевик, мелодрама, 2008] BDRip 1080p, Dub

salma3

14 | 4

11.42 ГБ

В этой теме нет новых непрочитанных сообщений. Варкрафт / Warcraft [Фэнтези, Боевик, Приключения, 2016] BDRip 1080p HEVC, Dub [Extended] [3D-Video]

salma3

63 | 101

9.74 ГБ

В этой теме нет новых непрочитанных сообщений. Оз: Нашествие летучих обезьян / Guardianes de Oz (Альберто Мар) [мультфильм, фэнтези, приключения, 2015] BDRip 1080p, Dub [Лицензия]

Dracon

1 | 1

4.89 ГБ

В этой теме нет новых непрочитанных сообщений. Ужастики / Goosebumps [фэнтези, комедия, приключения, 2015] BDRip 1080p, Dub+Sub [3D-Video | iTunes]

Dracon

1036 | 213

7.34 ГБ


Начать новую тему Ответить на тему  [ 1 сообщение ] 




Для Мосгорсуда, Роскомнадзора и рекламодателей:: mosgorsud-torrent[собачка]yandex.ru
cron