Торрент файл
скачать торрент магнет ссылка Добавлен: 19 июн 2018, 11:05
Размер: 2.18 ГБ
Сидеров: 0
Личеров: 0
Статус: (salma3)
Автор

СообщениеДобавлено: 19 июн 2018, 11:05 

В сети
Супермодератор
Аватара пользователя
Дата регистрации:
15 фев 2012, 16:44
Возраст: 28
Спасибо: 7223 / 2147
Сообщения: 67716
Год выпуска: 2004
Жанр: боевик, триллер, детектив
Режиссер: Пол Гринграсс

В ролях: Мэтт Дэймон, Франка Потенте, Брайан Кокс, Джулия Стайлз, Карл Урбан, Гэбриел Манн, Джоан Аллен, Мартон Чокаш, Том Гэллоп, Джон Бедфорд Ллойд

О фильме:
Суперагент ЦРУ Джейсон Борн вновь оказывается подставленным и вынужден помимо возложенной на него задачи государственного значения спасать себя, а заодно и других небезразличных ему людей.

В процессе выполнения миссии судьба заносит Борна в Россию, где его ждет множество характерных для страны, но непривычных западному человеку сюрпризов.



Страна: США, Германия
Продолжительность: 01:48:34
Перевод: Профессиональный (дублированный) |Blu-ray CEE|

Файл
Качество: WEB-DLRip-AVC
Формат: Matroska
Видео: 1024x576 at 23.976 fps, [email protected], ~2424 kbps
Аудио: 48 kHz, AC3, 3/2 (L,C,R,l,r) + LFE ch, ~448 kbps
Субтитры: Russian (Captions)



General
Unique ID : 66210434057854796124610498896098500487 (0x31CFAA6F22A22D12940CF58379A81F87)
Complete name : G:Видео_1Превосходство Борна_2004_WEB_DLRIP-AVC_O.M_[-=DoMiNo=-].mkv
Format : Matroska
Format version : Version 4 / Version 2
File size : 2.18 GiB
Duration : 1 h 48 min
Overall bit rate : 2 875 kb/s
Movie name : Превосходство Борна
Deion : Суперагент ЦРУ Джейсон Борн вновь оказывается подставленным и вынужден помимо возложенной на него задачи государственного значения спасать себя, а заодно и других небезразличных ему людей.В процессе выполнения миссии судьба заносит Борна в Россию, где его ждет множество характерных для страны, но непривычных западному человеку сюрпризов.
Writing application : XviD4PSP 7.0.452 DAILY
Writing library : Lavf57.71.100
ErrorDetectionType : Per level 1
Attachments : poster.jpg
ACTORS : Matt Damon, Franka Potente, Brian Cox, Julia Stiles, Karl Urban, Gabriel Mann, Joan Allen, Marton Csokas, Tom Gallop, John Bedford Lloyd, Ethan Sandler, Michelle Monaghan, Karel Roden, Tomas Arana, Oksana Akinshina, Yevgeni Sitokhin, Marina Weis, Tim Griffin, Sean Smith, Maxim Kovalevski, Patrick Crowley, Jon Collin Barclay, Sam Brown, Shane Sinutko, Barnaby Smith, Dominique Chiout, Wanja Mues, Aleksey Shmarinov, Stephan Wolf-Schönburg, Olov Ludwig, Keshav Nadkarni, Violetta Gräfin Tarnowska Bronner, Aleksey Medvedev, Aleksandr Dubina, Aleksandr Boev, Claudio Maniscalco, Manfred Witt, Aleksey Trotsenko, Victoria Unikel, Oksana Semenova, Vitaliy Abdulov, Dirk Schoedon, Ivan Shvedoff, Denis Burgazliev, Nick Wilder, Chris Cooper
COUNTRY : Germany, United States
DATE : 2004-07-23
DIRECTOR : Paul Greengrass
ENCODING_INFO : MATROSKA,WEBM > MKV Пользовательский / H264 > X264 VBR-2P 2424kbps Пользовательский / DTS > AC3 CBR 448kbps
GENRE : боевик, драма, триллер
HD_VIDEO : 1
ITUNEXTC : 12, 12, 12
Language : und
MEDIA_TYPE : 9
ORIGINAL_TITLE : The Bourne Supremacy
PRODUCER : Frank Marshall, Patrick Crowley, Paul Sandberg
PUBLISHER : Universal Pictures, The Kennedy/Marshall Company, Hypnotic, Motion Picture THETA Produktionsgesellschaft, Ludlum Entertainment
RATING : 7.30
WRITER : Tony Gilroy

Video
ID : 1
Format : AVC
Format/Info : Advanced Video Codec
Format profile : [email protected]
Format settings : CABAC / 14 Ref Frames
Format settings, CABAC : Yes
Format settings, ReFrames : 14 frames
Codec ID : V_MPEG4/ISO/AVC
Duration : 1 h 48 min
Bit rate : 2 424 kb/s
Width : 1 024 pixels
Height : 576 pixels
Display aspect ratio : 16:9
Frame rate mode : Constant
Frame rate : 23.976 (24000/1001) FPS
Color space : YUV
Chroma subsampling : 4:2:0
Bit depth : 8 bits
Scan type : Progressive
Bits/(Pixel*Frame) : 0.171
Stream size : 1.80 GiB (82%)
Title : RIP_BY_-=DoMiNo=-
Writing library : x264 core 155 r2901M 7d0ff22
Encoding settings : cabac=1 / ref=14 / deblock=1:-3:-3 / analyse=0x3:0x133 / me=umh / subme=11 / psy=1 / psy_rd=1.05:0.15 / mixed_ref=1 / me_range=32 / chroma_me=1 / trellis=2 / 8x8dct=1 / cqm=0 / deadzone=21,11 / fast_pskip=0 / chroma_qp_offset=-3 / threads=6 / lookahead_threads=1 / sliced_threads=0 / nr=0 / decimate=1 / interlaced=0 / bluray_compat=0 / constrained_intra=0 / bframes=12 / b_pyramid=2 / b_adapt=2 / b_bias=0 / direct=3 / weightb=1 / open_gop=0 / weightp=2 / keyint=240 / keyint_min=24 / scenecut=40 / intra_refresh=0 / rc=2pass / mbtree=0 / bitrate=2424 / ratetol=1.0 / qcomp=0.70 / qpmin=0 / qpmax=69 / qpstep=4 / cplxblur=20.0 / qblur=0.5 / ip_ratio=1.40 / pb_ratio=1.30 / aq=3:0.95
Language : English
Default : Yes
Forced : No
Color range : Limited
Color primaries : BT.709
Transfer characteristics : BT.709
Matrix coefficients : BT.709

Audio
ID : 2
Format : AC-3
Format/Info : Audio Coding 3
Codec ID : A_AC3
Duration : 1 h 48 min
Bit rate mode : Constant
Bit rate : 448 kb/s
Channel(s) : 6 channels
Channel positions : Front: L C R, Side: L R, LFE
Sampling rate : 48.0 kHz
Frame rate : 31.250 FPS (1536 SPF)
Bit depth : 16 bits
Compression mode : Lossy
Stream size : 348 MiB (16%)
Title : Дубляж - BluRay
Language : Russian
Service kind : Complete Main
Default : Yes
Forced : No

Text
ID : 3
Format : UTF-8
Codec ID : S_TEXT/UTF8
Codec ID/Info : UTF-8 Plain Text
Title : Надписи и пр.
Language : Russian
Default : Yes
Forced : No

Menu
00:00:00.000 : :Глава 1
00:09:06.671 : :Глава 2
00:18:42.997 : :Глава 3
00:28:24.620 : :Глава 4
00:37:31.541 : :Глава 5
00:47:05.489 : :Глава 6
00:56:31.346 : :Глава 7
01:05:50.530 : :Глава 8
01:15:36.240 : :Глава 9
01:24:54.297 : :Глава 10
01:34:38.172 : :Глава 11
01:42:29.310 : :Глава 12




_________________
Проголосуй за трекер Открытый торрент трекер - RUS-MEDIA.ORG

Проголосуй Открытый торрент трекер - RUS-MEDIA.ORG


Вернуться к началу
 Профиль Отправить личное сообщение  
 
   Похожие торренты   Автор   Торрент   Размер 
В этой теме нет новых непрочитанных сообщений. Превосходство Борна / The Bourne Supremacy [боевик, триллер, детектив, 2004] WEB-DL 1080p, Dub [Open Matte]

salma3

0 | 0

14.44 ГБ

В этой теме нет новых непрочитанных сообщений. Превосходство Борна / The Bourne Supremacy [Боевик, триллер, криминал, 2004] BDRemux 1080p, Dub

salma3

0 | 10

26.34 ГБ

В этой теме нет новых непрочитанных сообщений. Идентификация Борна / The Bourne Identity [боевик, триллер, детектив, 2002] Hybrid 1080p, Dub [Open Matte]

salma3

0 | 0

19.14 ГБ

В этой теме нет новых непрочитанных сообщений. Охотники за разумом / Mindhunters [триллер, криминал, детектив, 2004] WEB-DLRip-AVC, Dub [Open Matte]

salma3

16 | 3

2.18 ГБ

В этой теме нет новых непрочитанных сообщений. Охотники за разумом / Mindhunters [триллер, криминал, детектив, 2004] WEB-DLRip-AVC, Dub [Open Matte]

salma3

8 | 1

746.55 МБ

В этой теме нет новых непрочитанных сообщений. Тайное окно / Secret Window [Триллер, детектив, 2004] WEB-DLRip-AVC, Dub [Open Matte]

salma3

6 | 4

2.18 ГБ

В этой теме нет новых непрочитанных сообщений. Гнев / Man on Fire [боевик, триллер, драма, 2004] WEB-DLRip, Dub [Open Matte]

salma3

0 | 0

1.45 ГБ


Начать новую тему Ответить на тему  [ 1 сообщение ] 




Для Мосгорсуда, Роскомнадзора и рекламодателей:: mosgorsud-torrent[собачка]yandex.ru
cron