Торрент файл
скачать торрент магнет ссылка Добавлен: 17 май 2018, 03:40
Размер: 1.2 ГБ
Сидеров: 29
Личеров: 2
Статус: (salma3)
Автор

СообщениеДобавлено: 17 май 2018, 03:40 

Не в сети
Супермодератор
Аватара пользователя
Дата регистрации:
15 фев 2012, 16:44
Возраст: 28
Спасибо: 7290 / 2147
Сообщения: 70823
Год выхода: 2017
Жанр: Ужасы, триллер
Режиссер: Кевин Мендибор

В ролях: Николас Шейк, Хлоя Дюма, Бенджамин Полуновский, Борис Андерсен, Питер Ламарк, Пол Бэнди, Сара Текая и другие

О фильме:
Кэрол, одинокая девушка, приглашает молодого ютубера Дэвида Бэйкера расследовать паранормальные явления в её доме. Понемногу парень понимает, что всё не так просто, как кажется на первый взгляд.



Страна: Франция, Kmp
Продолжительность: 01:18:30
Перевод: Любительский (двухголосый закадровый) | HiWay Grope

Файл
Кодек: XviD
Качество: WEBRip
Видео: 720x384, 23.976 fps, ~1992 kbps avg, 0.30 bit/pixel
Аудио rus: AC3, 48 kHz, 2 ch, 192 Kbps

Реклама: присутствует

Семпл

General
Complete name : E:The.Follower.2017.WEBRip.HiWayGropeThe.Follower.2017.WEBRip.HiWayGrope.avi
Format : AVI
Format/Info : Audio Video Interleave
File size : 1.20 GiB
Duration : 1h 18mn
Overall bit rate : 2 194 Kbps
Writing application : VirtualDubMod 1.5.10.3 (build 2550/release)
Writing library : VirtualDubMod build 2550/release
Video
ID : 0
Format : MPEG-4 Visual
Format profile : Advanced [email protected]
Format settings, BVOP : 1
Format settings, QPel : No
Format settings, GMC : No warppoints
Format settings, Matrix : Default (MPEG)
Codec ID : XVID
Codec ID/Hint : XviD
Duration : 1h 18mn
Bit rate : 1 992 Kbps
Width : 720 pixels
Height : 384 pixels
Display aspect ratio : 1.85:1
Frame rate : 23.976 (23976/1000) fps
Color space : YUV
Chroma subsampling : 4:2:0
Bit depth : 8 bits
Scan type : Progressive
Compression mode : Lossy
Bits/(Pixel*Frame) : 0.301
Stream size : 1.09 GiB (91%)
Writing library : XviD 73
Audio
ID : 1
Format : AC-3
Format/Info : Audio Coding 3
Mode extension : CM (complete main)
Format settings, Endianness : Big
Codec ID : 2000
Duration : 1h 18mn
Bit rate mode : Constant
Bit rate : 192 Kbps
Channel(s) : 2 channels
Channel positions : Front: L R
Sampling rate : 48.0 KHz
Frame rate : 31.250 fps (1536 spf)
Compression mode : Lossy
Stream size : 108 MiB (9%)
Alignment : Split accross interleaves
Interleave, duration : 42 ms (1.00 video frame)
Interleave, preload duration : 500 ms


Релиз от: HiWay Grope


_________________
Проголосуй за трекер Открытый торрент трекер - RUS-MEDIA.ORG

Проголосуй Открытый торрент трекер - RUS-MEDIA.ORG


Вернуться к началу
 Профиль Отправить личное сообщение  
 
   Похожие торренты   Автор   Торрент   Размер 
В этой теме нет новых непрочитанных сообщений. Преследователь / The Follower [триллер, 2016] WEB-DLRip, Mvo

salma3

296 | 135

1.37 ГБ

В этой теме нет новых непрочитанных сообщений. Оно / It [ужасы, триллер, драма , 2017] WEBRip, Mvo

salma3

702 | 355

1.31 ГБ

В этой теме нет новых непрочитанных сообщений. Дом с призраками / Haunted [Ужасы, триллер, 2017] WEBRip, Dvo

salma3

3 | 1

1.32 ГБ

В этой теме нет новых непрочитанных сообщений. Оно / It [ужасы, триллер, драма , 2017] WEBRip 1080p, Mvo

salma3

0 | 0

4.02 ГБ

В этой теме нет новых непрочитанных сообщений. Мама и папа / Mom and Dad [триллер, ужасы, 2017] WEBRip, Avo

salma3

53 | 7

947.53 МБ

В этой теме нет новых непрочитанных сообщений. Палачи / The Executioners [Ужасы, триллер, 2017] WEBRip, Dvo

salma3

50 | 28

1.35 ГБ

В этой теме нет новых непрочитанных сообщений. Эйла / Ayla [Ужасы, фэнтези, триллер, 2017] WEBRip, Dvo

salma3

39 | 18

1.19 ГБ


Начать новую тему Ответить на тему  [ 1 сообщение ] 




Для Мосгорсуда, Роскомнадзора и рекламодателей:: mosgorsud-torrent[собачка]yandex.ru
cron