Торрент файл
скачать торрент магнет ссылка Добавлен: 16 май 2018, 21:16
Размер: 2.18 ГБ
Сидеров: 0
Личеров: 0
Статус: (salma3)
Автор

СообщениеДобавлено: 16 май 2018, 21:16 

Не в сети
Супермодератор
Аватара пользователя
Дата регистрации:
15 фев 2012, 16:44
Возраст: 28
Спасибо: 7290 / 2147
Сообщения: 70823
Год выхода: 1964
Жанр: Комедия
Режиссер: Норман Джуисон

В ролях: Рок Хадсон, Дорис Дэй, Тони Рэндалл, Пол Линде, Хэл Марч, Эдвард Эндрюс, Патриция Бэрри, Клинт Уокер, Клайв Клерк, Алин Таун, Дэйв Уиллок, Хелен Уинстон, Кристин Нельсон, Лу Бирн, Томми Кук, Форрест Дрэйпер, Шеп Хотон, Морин Джанзэн, Жан Пол Кинг, Джон Мелфи, Херб Вигран

О фильме:
Джордж Кимбэл - ипохондрик. Лёгкое покалывание в груди этот крепыш готов принять за сердечный приступ. Он глотает пилюли горстями и доводит своего доктора. Однажды Джордж случайно подслушивает разговор врачей о другом пациенте и решает, что "неизлечимо болен", и жить ему осталось не более двух недель. Желая обеспечить будущее любимой жены Джуди, он решает подыскать ей нового мужа…



Выпущено: США, Martin Melcher Productions, Universal Pictures
Продолжительность: 01:39:48
Перевод: Профессиональный многоголосый, закадровый (Имидж-Арт)
Субтитры: Русские, английские

Файл
Качество: BDRip-AVC
Видео: AVC/H.264, 1024x552, ~2746 Kbps
Аудио 1: Русский, AC3, 2 ch, 192 Kbps, 48.0 kHz
Аудио 2: Английский, AC3, 2 ch, 192 Kbps, 48.0 kHz

Общее
Уникальный идентификатор : 216068372869345436837301785391601882663 (0xA28D414361A924F3B4EB0E22EC491627)
Полное имя : F:DownloadsНе присылай мне цветы. 1964. NNMCLUB.mkv
Формат : Matroska
Версия формата : Version 4 / Version 2
Размер файла : 2,18 Гбайт
Продолжительность : 1 ч. 39 м.
Общий поток : 3132 Кбит/сек
Дата кодирования : UTC 2018-04-26 21:36:00
Программа кодирования : mkvmerge v7.9.0 ('Birds') 64bit
Библиотека кодирования : libebml v1.3.1 + libmatroska v1.4.2
Видео
Идентификатор : 1
Формат : AVC
Формат/Информация : Advanced Video Codec
Профиль формата : [email protected]
Настройки формата : CABAC / 10 Ref Frames
Параметр CABAC формата : Да
Параметр RefFrames формата : 10 кадров
Идентификатор кодека : V_MPEG4/ISO/AVC
Продолжительность : 1 ч. 39 м.
Битрейт : 2746 Кбит/сек
Ширина : 1024 пикселя
Высота : 552 пикселя
Соотношение сторон : 1,85:1
Режим частоты кадров : Постоянный
Частота кадров : 23,976 (24000/1001) кадра/сек
Цветовое пространство : YUV
Субдискретизация насыщенности : 4:2:0
Битовая глубина : 8 бит
Тип развёртки : Прогрессивная
Бит/(Пиксели*Кадры) : 0.203
Размер потока : 1,91 Гбайт (88%)
Заголовок : Send Me No Flowers
Библиотека кодирования : x264 core 146 r2538 121396c
Настройки программы : cabac=1 / ref=10 / deblock=1:-1:-1 / analyse=0x3:0x113 / me=umh / subme=10 / psy=1 / psy_rd=1.00:0.10 / mixed_ref=1 / me_range=32 / chroma_me=1 / trellis=2 / 8x8dct=1 / cqm=0 / deadzone=21,11 / fast_pskip=0 / chroma_qp_offset=-3 / threads=6 / lookahead_threads=1 / sliced_threads=0 / nr=0 / decimate=0 / interlaced=0 / bluray_compat=0 / constrained_intra=0 / bframes=7 / b_pyramid=2 / b_adapt=2 / b_bias=0 / direct=3 / weightb=1 / open_gop=0 / weightp=2 / keyint=250 / keyint_min=25 / scenecut=40 / intra_refresh=0 / rc_lookahead=60 / rc=2pass / mbtree=1 / bitrate=2746 / ratetol=1.0 / qcomp=0.60 / qpmin=0 / qpmax=69 / qpstep=4 / cplxblur=20.0 / qblur=0.5 / vbv_maxrate=14000 / vbv_bufsize=14000 / nal_hrd=none / filler=0 / ip_ratio=1.40 / aq=1:1.00
Язык : English
Default : Да
Forced : Нет
Аудио #1
Идентификатор : 2
Формат : AC-3
Формат/Информация : Audio Coding 3
Идентификатор кодека : A_AC3
Продолжительность : 1 ч. 39 м.
Вид битрейта : Постоянный
Битрейт : 192 Кбит/сек
Каналы : 2 канала
Расположение каналов : Front: L R
Частота : 48,0 КГц
Частота кадров : 31,250 кадров/сек (1536 SPF)
Битовая глубина : 16 бит
Метод сжатия : С потерями
Размер потока : 137 Мбайт (6%)
Заголовок : Многоголосый закадровый, Имидж-Арт
Язык : Russian
ServiceKind : Complete Main
Default : Да
Forced : Нет
Аудио #2
Идентификатор : 3
Формат : AC-3
Формат/Информация : Audio Coding 3
Идентификатор кодека : A_AC3
Продолжительность : 1 ч. 39 м.
Вид битрейта : Постоянный
Битрейт : 192 Кбит/сек
Каналы : 2 канала
Расположение каналов : Front: L R
Частота : 48,0 КГц
Частота кадров : 31,250 кадров/сек (1536 SPF)
Битовая глубина : 16 бит
Метод сжатия : С потерями
Размер потока : 137 Мбайт (6%)
Заголовок : Оригинал
Язык : English
ServiceKind : Complete Main
Default : Нет
Forced : Нет
Текст #1
Идентификатор : 4
Формат : UTF-8
Идентификатор кодека : S_TEXT/UTF8
Идентификатор кодека/Информация : UTF-8 Plain Text
Продолжительность : 1 ч. 38 м.
Битрейт : 100 бит/сек
ElementCount : 1122
Размер потока : 72,4 Кбайт (0%)
Заголовок : SRT
Язык : Russian
Default : Нет
Forced : Нет
Текст #2
Идентификатор : 5
Формат : UTF-8
Идентификатор кодека : S_TEXT/UTF8
Идентификатор кодека/Информация : UTF-8 Plain Text
Продолжительность : 1 ч. 39 м.
Битрейт : 76 бит/сек
ElementCount : 1727
Размер потока : 55,3 Кбайт (0%)
Заголовок : SRT
Язык : English
Default : Нет
Forced : Нет


_________________
Проголосуй за трекер Открытый торрент трекер - RUS-MEDIA.ORG

Проголосуй Открытый торрент трекер - RUS-MEDIA.ORG


Вернуться к началу
 Профиль Отправить личное сообщение  
 
   Похожие торренты   Автор   Торрент   Размер 
В этой теме нет новых непрочитанных сообщений. Сломанные цветы / Broken Flowers [драма, мелодрама, комедия, 2005] BDRip 720p, 2Mvo+Sub

salma3

8 | 17

6.32 ГБ

В этой теме нет новых непрочитанных сообщений. Сломанные цветы / Broken Flowers [драма, мелодрама, комедия, детектив, 2005] BDRip 1080p, 2Mvo+Sub

salma3

6 | 11

9.56 ГБ

В этой теме нет новых непрочитанных сообщений. Цветы на чердаке / Flowers in the Attic [триллер, драма, детектив, 1987] BDRip, Mvo

salma3

10 | 4

1.46 ГБ

В этой теме нет новых непрочитанных сообщений. Сломанные цветы / Broken Flowers [драма, мелодрама, комедия, 2005] HDRip, Mvo

salma3

217 | 33

1.45 ГБ

В этой теме нет новых непрочитанных сообщений. Цветы войны / The Flowers of War / Jin líng shí san chai [Драма, военный, история, экранизация, 2011] BDRemux 1080p, Dub

salma3

17 | 18

29.04 ГБ

В этой теме нет новых непрочитанных сообщений. Мсье Ибрагим и цветы Корана / Monsieur Ibrahim et les fleurs du Coran [драма, комедия, 2003] BDRip, Avo

salma3

0 | 0

1.45 ГБ

В этой теме нет новых непрочитанных сообщений. Топкапи / Topkapi [комедия, криминал, приключения, 1964] BDRip-AVC, Mvo

salma3

0 | 0

2.9 ГБ


Начать новую тему Ответить на тему  [ 1 сообщение ] 




Для Мосгорсуда, Роскомнадзора и рекламодателей:: mosgorsud-torrent[собачка]yandex.ru
cron