Торрент файл
скачать торрент магнет ссылка Добавлен: 05 янв 2018, 12:20
Размер: 1.37 ГБ
Сидеров: 29
Личеров: 2
Статус: (salma3)
Автор

СообщениеДобавлено: 05 янв 2018, 12:20 

Не в сети
Супермодератор
Аватара пользователя
Дата регистрации:
15 фев 2012, 16:44
Возраст: 28
Спасибо: 7285 / 2147
Сообщения: 70380
Год выпуска: 2009
Жанр: мелодрама, комедия
Режиссер: Денеш Орос

В ролях: Шандор Чаньи, Катья Томпош, Бела Месарош, Адриенн Рети, Эстер Банфалви, Ката Барч, Река Тенки, Нора Парти, Шандор Чикош

Описание:
Андраш и Лила вместе уже пять лет. Всё складывается удачно в их жизни. Он — известный сценарист. Она преподаёт в университете. Только любовь Андраша начинает блекнуть и тускнеть. И даже известие о том, что у них наконец-то будет ребёнок, не освежает его чувства. Что-то безвозвратно уходит из его жизни...



Страна: Венгрия
Продолжительность: 01:24:50
Перевод:Профессиональный (многоголосый, закадровый)

Качество: DVDRip
Видео: 720x400 (16:9), 25.000 fps, XviD ~1 851 kbps avg
Аудио: 48.0 kHz, AC3 Dolby Digital, 3/2 (L,C,R,l,r) + LFE ch, ~448 kbps

General
Complete name : Mnogozhenetz.2009.P.DVDRip.avi
Format : AVI
Format/Info : Audio Video Interleave
File size : 1.37 GiB
Duration : 1h 24mn
Overall bit rate : 2 309 Kbps
Writing application : VirtualDubMod 1.5.4.1 (build 2178/release)
Writing library : VirtualDubMod build 2178/release

Video
ID : 0
Format : MPEG-4 Visual
Format profile : [email protected]
Format settings, BVOP : No
Format settings, QPel : No
Format settings, GMC : No warppoints
Format settings, Matrix : Default (H.263)
Codec ID : XVID
Codec ID/Hint : XviD
Duration : 1h 24mn
Bit rate : 1 851 Kbps
Width : 720 pixels
Height : 400 pixels
Display aspect ratio : 16:9
Frame rate : 25.000 fps
Color space : YUV
Chroma subsampling : 4:2:0
Bit depth : 8 bits
Scan type : Progressive
Compression mode : Lossy
Bits/(Pixel*Frame) : 0.257
Stream size : 1.10 GiB (80%)
Writing library : XviD 1.2.1 (UTC 2008-12-04)

Audio
ID : 1
Format : AC-3
Format/Info : Audio Coding 3
Mode extension : CM (complete main)
Format settings, Endianness : Big
Codec ID : 2000
Duration : 1h 24mn
Bit rate mode : Constant
Bit rate : 448 Kbps
Channel(s) : 6 channels
Channel positions : Front: L C R, Side: L R, LFE
Sampling rate : 48.0 KHz
Compression mode : Lossy
Stream size : 272 MiB (19%)
Alignment : Split accross interleaves
Interleave, duration : 40 ms (1.00 video frame)
Interleave, preload duration : 500 ms


_________________
Проголосуй за трекер Открытый торрент трекер - RUS-MEDIA.ORG

Проголосуй Открытый торрент трекер - RUS-MEDIA.ORG


Вернуться к началу
 Профиль Отправить личное сообщение  
 
   Похожие торренты   Автор   Торрент   Размер 
В этой теме нет новых непрочитанных сообщений. Ищущий азарта / Kick [Комедия, мелодрама, боевик, 2009] DVDRip, Avo

salma3

8 | 2

815.22 МБ

В этой теме нет новых непрочитанных сообщений. Спутник жизни / Life Partner [драма, мелодрама, комедия, 2009] DVDRip, Mvo

salma3

1 | 0

1.88 ГБ

В этой теме нет новых непрочитанных сообщений. Бабник / Spread [мелодрама, комедия, 2009] BDRemux 1080p, Dub

salma3

4 | 2

14.58 ГБ

В этой теме нет новых непрочитанных сообщений. Непристойное кино / Sex Pot [мелодрама, комедия, 2009] BDRip 1080p, Mvo

salma3

197 | 116

7.12 ГБ

В этой теме нет новых непрочитанных сообщений. Красавчик 2 / Zweiohrkuken [Комедия, мелодрама, 2009] BDRip 720p, Dub

salma3

0 | 0

4.37 ГБ

В этой теме нет новых непрочитанных сообщений. Нянька по вызову / The Rebound [комедия, мелодрама, 2009] BDRip-AVC, Dub+Sub

salma3

0 | 0

1.45 ГБ

В этой теме нет новых непрочитанных сообщений. Три идиота / 3 Idiots [драма, мелодрама, комедия, 2009] HDRip-AVC, Mvo

salma3

61 | 4

1.45 ГБ


Начать новую тему Ответить на тему  [ 1 сообщение ] 




Для Мосгорсуда, Роскомнадзора и рекламодателей:: mosgorsud-torrent[собачка]yandex.ru
cron