Торрент файл
скачать торрент магнет ссылка Добавлен: 02 янв 2018, 13:54
Размер: 745.49 МБ
Сидеров: 18
Личеров: 6
Статус: (salma3)
Автор

СообщениеДобавлено: 02 янв 2018, 13:54 

Не в сети
Супермодератор
Аватара пользователя
Дата регистрации:
15 фев 2012, 16:44
Возраст: 28
Спасибо: 7285 / 2147
Сообщения: 70259
Год выхода: 1989
Жанр: Комедия, приключения, семейный
Режиссер: Джо Джонстон

В ролях: Рик Моранис, Мэтт Фрюэр, Марша Стрэссмен, Кристин Сазерленд, Томас Уилсон Браун, Джэред Раштон, Эми О’Нил, Роберт Оливери, Карл Стивен, Марк Л. Тейлор

О фильме:
Последнее изобретение великого новатора профессора Жалинского — электромагнитная машина которая может уменьшать предметы. Когда чудо техники, наконец, заработало, этими предметами оказались… дети изобретателя, попавшие в поле действия прибора. Они и так не отличались гигантским ростом, а теперь еще и сократились в размере настолько что их вообще не стало видно. Ничего не подозревающий отец опять же совершенно случайно выбрасывает своих отпрысков в мусорное ведро. Новоиспеченным лилипутам нужно выбраться из помойки как можно быстрее пока их не затоптали тараканы и вернуться домой чтобы обнять заботливого папочку...



Выпущено: США, Walt Disney Pictures
Продолжительность: 01:33:30
Перевод: Профессиональный [многоголосый] [ОРТ]

Файл
Кодек: XviD
Качество: HDRip
Видео: 656x352 (1.86:1), 23.976 fps, XviD build 73 ~977 kbps avg, 0.18 bit/pixel
Звук: 48 kHz, MP3, 2 ch, ~128.00 kbps avg


Семпл


General
Complete name : D:\Honey.I.Shrunk.the.Kids.1989.HDRip by ExKinoRay.avi
Format : AVI
Format/Info : Audio Video Interleave
File size : 745 MiB
Duration : 1 h 33 min
Overall bit rate : 1 115 kb/s
Writing application : VirtualDubMod 1.5.10.3 | http://www.virtualdub-fr.org || (build 2550/release)
Writing library : VirtualDubMod build 2550/release

Video
ID : 0
Format : MPEG-4 Visual
Format profile : Advanced [email protected]
Format settings : BVOP1 / Custom Matrix
Format settings, BVOP : 1
Format settings, QPel : No
Format settings, GMC : No warppoints
Format settings, Matrix : Custom
Codec ID : XVID
Codec ID/Hint : XviD
Duration : 1 h 33 min
Bit rate : 977 kb/s
Width : 656 pixels
Height : 352 pixels
Display aspect ratio : 1.85:1
Frame rate : 23.976 (24000/1001) FPS
Original frame rate : 23.976 (23976/1000) FPS
Color space : YUV
Chroma subsampling : 4:2:0
Bit depth : 8 bits
Scan type : Progressive
Compression mode : Lossy
Bits/(Pixel*Frame) : 0.177
Stream size : 654 MiB (88%)
Writing library : XviD 73

Audio
ID : 1
Format : MPEG Audio
Format version : Version 1
Format profile : Layer 3
Codec ID : 55
Codec ID/Hint : MP3
Duration : 1 h 33 min
Bit rate mode : Constant
Bit rate : 128 kb/s
Channel(s) : 2 channels
Sampling rate : 48.0 kHz
Compression mode : Lossy
Stream size : 85.6 MiB (11%)
Alignment : Aligned on interleaves
Interleave, duration : 42 ms (1.00 video frame)
Interleave, preload duratio : 504 ms
Writing library : LAME3.99r
Encoding settings : -m s -V 4 -q 2 -lowpass 17 -b 128



Релиз от:


_________________
Проголосуй за трекер Открытый торрент трекер - RUS-MEDIA.ORG

Проголосуй Открытый торрент трекер - RUS-MEDIA.ORG


Вернуться к началу
 Профиль Отправить личное сообщение  
 
   Похожие торренты   Автор   Торрент   Размер 
В этой теме нет новых непрочитанных сообщений. Дорогая, я уменьшил детей / Honey, I Shrunk the Kids [Комедия, приключения, семейный, 1989] HDRip, Mvo [ОРТ]

salma3

20 | 2

1.46 ГБ

В этой теме нет новых непрочитанных сообщений. Дорогая, я уменьшил детей / Honey, I Shrunk the Kids [Комедия, семейный, фантастика, 1989] HDRip, Mvo [СТС]

salma3

53 | 11

1.37 ГБ

В этой теме нет новых непрочитанных сообщений. Дорогая, я уменьшил детей / Honey, I Shrunk the Kids [Комедия, приключения, семейный, 1989] BDRip 720p, Mvo

salma3

52 | 5

5.75 ГБ

В этой теме нет новых непрочитанных сообщений. Гюнтер и газетная мафия / Brigade kids [комедия, приключения, семейный, 1996] DVDRip, Avo

salma3

35 | 13

1.09 ГБ

В этой теме нет новых непрочитанных сообщений. Малыши из мусорного бачка / The Garbage Pail Kids Movie [фантастика, комедия, приключения, семейный, 1987] DVDRip, Avo

salma3

42 | 10

2 ГБ

В этой теме нет новых непрочитанных сообщений. Дом странных детей Мисс Перегрин / Miss Peregrine's Home for Peculiar Children [фэнтези, драма, приключения, семейный, 2016] HDRip-AVC, Dub [лицензия]

salma3

1245 | 111

2.2 ГБ

В этой теме нет новых непрочитанных сообщений. Дом странных детей Мисс Перегрин / Miss Peregrine's Home for Peculiar Children [фэнтези, драма, приключения, семейный, 2016] HDRip, Dub [лицензия ]

salma3

2766 | 319

1.37 ГБ


Начать новую тему Ответить на тему  [ 1 сообщение ] 




Для Мосгорсуда, Роскомнадзора и рекламодателей:: mosgorsud-torrent[собачка]yandex.ru
cron