Торрент файл
скачать торрент магнет ссылка Добавлен: 18 ноя 2017, 16:15
Размер: 2.18 ГБ
Сидеров: 228
Личеров: 49
Статус: (salma3)
Автор

СообщениеДобавлено: 18 ноя 2017, 16:15 

Не в сети
Супермодератор
Аватара пользователя
Дата регистрации:
15 фев 2012, 16:44
Возраст: 28
Спасибо: 7224 / 2147
Сообщения: 67851
Год выхода: 2017
Жанр: Боевик, триллер
Режиссер: Саймон Уэст

В ролях: Джемма Чан, Тайлер Хэклин, Том Фелтон, Конни Нильсен, Доминик Купер, Остин Стоуэлл, Томас Кречман, Дерек Джекоби, Игал Наор, Ли Николас Харрис

О фильме: Коммандос спецподразделения вооруженных сил Великобритании, Джон Стрэттон, вступает в схватку с группой международных террористов. Их цель — осуществить теракт в Лондоне при помощи современного биологического оружия. Стрэттону придется действовать крайне решительно, иначе можно просто не успеть предотвратить трагедию.



Страна: Великобритания
Продолжительность: 01:34:28
Перевод: Любительский многоголосый | Синема УС + Оригинал

Файл
Качество: BDRip-AVC
Видео: AVC, 1144x480 (2.35:1), 23.976 fps, 2 412 Kbps (0.183 bit/pixel)
Звук: AC-3, 48.0 KHz, 6 ch, 448 Kbps
Звук: AC-3, 48.0 KHz, 6 ch, 448 Kbps

General
Unique ID : 235846561011848152151810475425305764883 (0xB16E6539CF2191AAB129E7646384A413)
Complete name : D:Dalinami torentaiStratton 2017.BDRip.AVC.AC3.EN.RU-GHOST.mkv
Format : Matroska
Format version : Version 4 / Version 2
File size : 2.18 GiB
Duration : 1 h 34 min
Overall bit rate : 3 310 kb/s
Movie name : GHOST
Encoded date : UTC 2017-11-15 19:25:30
Writing application : mkvmerge v9.2.0 ('Photograph') 64bit
Writing library : libebml v1.3.3 + libmatroska v1.4.4

Video
ID : 1
Format : AVC
Format/Info : Advanced Video Codec
Format profile : [email protected]
Format settings, CABAC : Yes
Format settings, ReFrames : 11 frames
Codec ID : V_MPEG4/ISO/AVC
Duration : 1 h 34 min
Bit rate : 2 412 kb/s
Width : 1 144 pixels
Height : 480 pixels
Display aspect ratio : 2.40:1
Frame rate mode : Constant
Frame rate : 23.976 (24000/1001) FPS
Color space : YUV
Chroma subsampling : 4:2:0
Bit depth : 8 bits
Scan type : Progressive
Bits/(Pixel*Frame) : 0.183
Stream size : 1.59 GiB (73%)
Writing library : x264 core 152 r2851M ba24899
Encoding settings : cabac=1 / ref=11 / deblock=1:-3:-3 / analyse=0x3:0x133 / me=umh / subme=11 / psy=1 / psy_rd=1.00:0.20 / mixed_ref=1 / me_range=32 / chroma_me=1 / trellis=2 / 8x8dct=1 / cqm=0 / deadzone=21,11 / fast_pskip=1 / chroma_qp_offset=-3 / threads=12 / lookahead_threads=3 / sliced_threads=0 / nr=0 / decimate=1 / interlaced=0 / bluray_compat=0 / constrained_intra=0 / bframes=11 / b_pyramid=2 / b_adapt=2 / b_bias=0 / direct=3 / weightb=1 / open_gop=0 / weightp=2 / keyint=240 / keyint_min=24 / scenecut=40 / intra_refresh=0 / rc_lookahead=40 / rc=2pass / mbtree=1 / bitrate=2412 / ratetol=1.0 / qcomp=0.60 / qpmin=10 / qpmax=69 / qpstep=4 / cplxblur=20.0 / qblur=0.5 / ip_ratio=1.40 / aq=1:1.00
Default : Yes
Forced : No

Audio #1
ID : 2
Format : AC-3
Format/Info : Audio Coding 3
Format settings, Endianness : Big
Codec ID : A_AC3
Duration : 1 h 34 min
Bit rate mode : Constant
Bit rate : 448 kb/s
Channel(s) : 6 channels
Channel positions : Front: L C R, Side: L R, LFE
Sampling rate : 48.0 kHz
Frame rate : 31.250 FPS (1536 spf)
Bit depth : 16 bits
Compression mode : Lossy
Stream size : 303 MiB (14%)
Language : Russian
Service kind : Complete Main
Default : Yes
Forced : No

Audio #2
ID : 3
Format : AC-3
Format/Info : Audio Coding 3
Format settings, Endianness : Big
Codec ID : A_AC3
Duration : 1 h 34 min
Bit rate mode : Constant
Bit rate : 448 kb/s
Channel(s) : 6 channels
Channel positions : Front: L C R, Side: L R, LFE
Sampling rate : 48.0 kHz
Frame rate : 31.250 FPS (1536 spf)
Bit depth : 16 bits
Compression mode : Lossy
Stream size : 303 MiB (14%)
Language : English
Service kind : Complete Main
Default : No
Forced : No


_________________
Проголосуй за трекер Открытый торрент трекер - RUS-MEDIA.ORG

Проголосуй Открытый торрент трекер - RUS-MEDIA.ORG


Вернуться к началу
 Профиль Отправить личное сообщение  
 
   Похожие торренты   Автор   Торрент   Размер 
В этой теме нет новых непрочитанных сообщений. Стрэттон: Первое задание / Stratton [Боевик, триллер, 2017] BDRip 1080p, Mvo

salma3

177 | 30

7.68 ГБ

В этой теме нет новых непрочитанных сообщений. Стрэттон: Первое задание / Stratton [боевик, триллер, 2017] WEB-DLRip, Mvo

salma3

1809 | 858

1.37 ГБ

В этой теме нет новых непрочитанных сообщений. Стрэттон: Первое задание / Stratton [Боевик, триллер, 2017] HDRip-AVC, Mvo

salma3

332 | 7

2.03 ГБ

В этой теме нет новых непрочитанных сообщений. Стрэттон: Первое задание / Stratton [Боевик, триллер, 2017] WEB-DLRip 1080p, Mvo

salma3

776 | 391

3.58 ГБ

В этой теме нет новых непрочитанных сообщений. Первое убийство / First Kill [Боевик, триллер, 2017] BDRip, Mvo

salma3

171 | 92

1.46 ГБ

В этой теме нет новых непрочитанных сообщений. Первое убийство / First Kill [боевик, триллер, 2017] WEB-DLRip, Mvo

salma3

688 | 97

1.36 ГБ

В этой теме нет новых непрочитанных сообщений. Первое убийство / First Kill [боевик, триллер, 2017] WEB-DLRip-AVC, Avo

salma3

659 | 213

1.37 ГБ


Начать новую тему Ответить на тему  [ 1 сообщение ] 




Для Мосгорсуда, Роскомнадзора и рекламодателей:: mosgorsud-torrent[собачка]yandex.ru
cron