Торрент файл
скачать торрент магнет ссылка Добавлен: 09 окт 2017, 14:40
Размер: 745.25 МБ
Сидеров: 7
Личеров: 2
Статус: (salma3)
Автор

СообщениеДобавлено: 09 окт 2017, 14:40 

Не в сети
Супермодератор
Аватара пользователя
Дата регистрации:
15 фев 2012, 16:44
Возраст: 28
Спасибо: 7290 / 2147
Сообщения: 70553
Год выхода: 2003
Жанр: спорт, триллер
Режиссер: Луи-Паскаль Кувлер / Louis-Pascal Couvelaire

В ролях: Сагамор Стевенен, Питер Янгблад Хиллз, Дайан Крюгер, Жан-Пьер Кассель, Беатрис Аженен, Филипп Бас, Филипп Леллушб, Лиза Барбуша, Джинн Моран, Франсуа Леванталь

О фильме: Главный герой фильма — бесстрашный и виртуозный автогонщик Мишель Вальян — многократный победитель крупнейших авторалли мира. Победам и успехам его команды восторженно рукоплещет публика, ему завидуют побежденные соперники. На сложнейшей трассе этой супер-гонки их ждет бескомпромиссная и жестокая борьба не за первое место, а борьба за жизнь, когда коварство соперников не знает границ.



Страна: Франция
Продолжительность: 01:43:27
Перевод: Профессиональный (полное дублирование)

Файл
Кодек: x264
Качество: HDRip-AVC
Видео: MPEG-4 AVC, 784x334 (2.35:1) at 23.976 fps, ~933 kbps
Звук: AAC-LC, 2 ch, 48 kHz, 72 kbps
Субтитры: русские

Семпл

General
Unique ID : 231982845144334906814333510473411218548 (0xAE86455375FD1C29BCE359D220C44C74)
Complete name : C:UsersDownloadsMichel Vaillant.2003.HDRip-AVC.mkv
Format : Matroska
Format version : Version 4 / Version 2
File size : 745 MiB
Duration : 1 h 43 min
Overall bit rate : 1 007 kb/s
Encoded date : UTC 2017-10-09 10:04:21
Writing application : mkvmerge v9.6.0 ('Slave To Your Mind') 64bit
Writing library : libebml v1.3.4 + libmatroska v1.4.5

Video
ID : 1
Format : AVC
Format/Info : Advanced Video Codec
Format profile : [email protected]
Format settings : CABAC / 8 Ref Frames
Format settings, CABAC : Yes
Format settings, RefFrames : 8 frames
Codec ID : V_MPEG4/ISO/AVC
Duration : 1 h 43 min
Bit rate : 933 kb/s
Width : 784 pixels
Height : 334 pixels
Display aspect ratio : 2.35:1
Frame rate mode : Constant
Frame rate : 23.976 (24000/1001) FPS
Color space : YUV
Chroma subsampling : 4:2:0
Bit depth : 8 bits
Scan type : Progressive
Bits/(Pixel*Frame) : 0.149
Stream size : 690 MiB (93%)
Writing library : x264 core 146 r2538 121396c
Encoding settings : cabac=1 / ref=8 / deblock=1:-3:-3 / analyse=0x3:0x113 / me=umh / subme=11 / psy=1 / psy_rd=1.00:0.00 / mixed_ref=1 / me_range=32 / chroma_me=1 / trellis=2 / 8x8dct=1 / cqm=0 / deadzone=21,11 / fast_pskip=0 / chroma_qp_offset=-2 / threads=6 / lookahead_threads=1 / sliced_threads=0 / nr=0 / decimate=0 / interlaced=0 / bluray_compat=0 / constrained_intra=0 / bframes=10 / b_pyramid=2 / b_adapt=2 / b_bias=0 / direct=3 / weightb=1 / open_gop=0 / weightp=2 / keyint=240 / keyint_min=23 / scenecut=40 / intra_refresh=0 / rc_lookahead=40 / rc=2pass / mbtree=1 / bitrate=933 / ratetol=1.0 / qcomp=0.60 / qpmin=0 / qpmax=69 / qpstep=4 / cplxblur=20.0 / qblur=0.5 / vbv_maxrate=50000 / vbv_bufsize=62500 / nal_hrd=none / filler=0 / ip_ratio=1.40 / aq=3:0.90
Default : Yes
Forced : No

Audio
ID : 2
Format : AAC
Format/Info : Advanced Audio Codec
Format profile : LC
Codec ID : A_AAC-2
Duration : 1 h 43 min
Bit rate : 72.0 kb/s
Channel(s) : 2 channels
Channel positions : Front: L R
Sampling rate : 48.0 kHz
Frame rate : 46.875 FPS (1024 SPF)
Compression mode : Lossy
Delay relative to video : 9 ms
Stream size : 53.3 MiB (7%)
Default : Yes
Forced : No

Text
ID : 3
Format : UTF-8
Codec ID : S_TEXT/UTF8
Codec ID/Info : UTF-8 Plain Text
Duration : 1 h 35 min
Bit rate : 74 b/s
Count of elements : 1104
Stream size : 52.3 KiB (0%)
Title : Full
Language : Russian
Default : Yes
Forced : No



_________________
Проголосуй за трекер Открытый торрент трекер - RUS-MEDIA.ORG

Проголосуй Открытый торрент трекер - RUS-MEDIA.ORG


Вернуться к началу
 Профиль Отправить личное сообщение  
 
   Похожие торренты   Автор   Торрент   Размер 
В этой теме нет новых непрочитанных сообщений. Мишель Вальян: Жажда скорости / Michel Vaillant [спорт, триллер, 2003] BDRip 720p, Dub

salma3

1 | 1

8.37 ГБ

В этой теме нет новых непрочитанных сообщений. Призрак Мон-Сен-Мишель / L'ombre du Mont-Saint-Michel [триллер, 2010] HDTVRip, Mvo

salma3

91 | 22

1.47 ГБ

В этой теме нет новых непрочитанных сообщений. Призрак Мон-Сен-Мишель / L'ombre du Mont-Saint-Michel (Клаус Бидерманн / Klaus Biedermann) [2010г., Франция, триллер, драма, детектив, SATRip] Dub

Alfredovich

22 | 2

1.27 ГБ

В этой теме нет новых непрочитанных сообщений. Молодой Годар / The Fox / Le Redoutable (Мишель Хазанавичус / Michel Hazanavicius) [2017г., Франция, драма, WEB-DLRip] MVO

Alfredovich

42 | 6

1.46 ГБ

В этой теме нет новых непрочитанных сообщений. Жажда / Thirst [фантастика, боевик, триллер, 2015] HDRip, Avo

salma3

95 | 8

1.27 ГБ

В этой теме нет новых непрочитанных сообщений. Жажда смерти / Death Wish [боевик, триллер, криминал, 2018] HDRip, Dub [iTunes]

salma3

10 | 2

1.37 ГБ

В этой теме нет новых непрочитанных сообщений. Жажда смерти / Death Wish [боевик, триллер, криминал, 2018] HDRip-AVC, Dub [Line]

salma3

504 | 127

745.15 МБ


Начать новую тему Ответить на тему  [ 1 сообщение ] 




Для Мосгорсуда, Роскомнадзора и рекламодателей:: mosgorsud-torrent[собачка]yandex.ru
cron