Торрент файл
скачать торрент магнет ссылка Добавлен: 31 авг 2017, 22:44
Размер: 3.17 ГБ
Сидеров: 324
Личеров: 158
Статус: (salma3)
Автор

СообщениеДобавлено: 31 авг 2017, 22:44 

Не в сети
Супермодератор
Аватара пользователя
Дата регистрации:
15 фев 2012, 16:44
Возраст: 28
Спасибо: 7290 / 2147
Сообщения: 70396
Год выпуска: 2017
Жанр: ужасы, фантастика, триллер
Режиссер: Ридли Скотт

В ролях: Майкл Фассбендер, Кэтрин Уотерстон, Билли Крудап, Дэнни МакБрайд, Демиан Бишир, Кармен Эджого, Джусси Смоллетт, Калли Эрнандес, Эми Саймец, Натаниель Дин

Описание:
Во время обследования удаленной планеты, расположенной на другой стороне галактики, экипаж колониального корабля «Завет» обнаруживает, что то, что они изначально приняли за неизведанный рай, на самом деле — тёмный и опасный мир. Его единственный житель — синтетический андроид Дэвид, оставшийся в живых после обреченной экспедиционной миссии «Прометей».



Страна: Великобритания, Австралия, Новая Зеландия, США
Продолжительность: 02:02:03
Перевод: Дублированный [Лицензия]

Качество: BDRip-AVC
Видео: 1024x426 (1.85:1), 23,976 fps, x264 ~2186 kbps avg, 0.209 bit/pixel
Аудио #1: 48 kHz, AC3 Dolby Digital, 3/2 (L,C,R,l,r) + LFE ch, ~448.00 kbps avg | RUS (Лицензия)
Аудио #2: 48 kHz, AC3 Dolby Digital, 2 (L,R) ch, ~192.00 kbps avg | RUS (Paradox&Omskbird records)
Аудио #3: 48 kHz, AC3 Dolby Digital, 3/2 (L,C,R,l,r) + LFE ch, ~448.00 kbps avg | RUS (Матвеев)
Аудио #4: 48 kHz, AC3 Dolby Digital, 3/2 (L,C,R,l,r) + LFE ch, ~448.00 kbps avg | ENG (Original)

Общее
Уникальный идентификатор : 250187159698702590265348214546903401291 (0xBC384B5464BAF7A9A88AED643F11034B)
Полное имя : D:Alien.Covenant.2017.BDRip(AVC).OlLanDGroup.mkv
Формат : Matroska
Версия формата : Version 2
Размер файла : 3,17 Гбайт
Продолжительность : 2 ч. 2 м.
Общий поток : 3719 Кбит/сек
Название фильма : Sleight.2016 #TorpedoUK#
Дата кодирования : UTC 2017-08-31 18:04:30
Программа кодирования : mkvmerge v7.8.0 ('River Man') 32bit built on Apr 3 2015 12:11:22
Библиотека кодирования : libebml v1.3.1 + libmatroska v1.4.2
Обложка : Yes
Attachments : small_cover.jpg / small_cover_land.jpg / cover.jpg / cover_land.jpg

Видео
Идентификатор : 1
Формат : AVC
Формат/Информация : Advanced Video Codec
Профиль формата : [email protected]
Параметр CABAC формата : Да
Параметр ReFrames формата : 10 кадров
Идентификатор кодека : V_MPEG4/ISO/AVC
Продолжительность : 2 ч. 2 м.
Битрейт : 2186 Кбит/сек
Ширина : 1024 пикселя
Высота : 426 пикселей
Соотношение сторон : 2,40:1
Режим частоты кадров : Постоянный
Частота кадров : 23,976 (24000/1001) кадра/сек
Цветовое пространство : YUV
Субдискретизация насыщенности : 4:2:0
Битовая глубина : 8 бит
Тип развёртки : Прогрессивная
Бит/(Пиксели*Кадры) : 0.209
Размер потока : 1,80 Гбайт (57%)
Библиотека кодирования : x264 core 146 r2538 121396c
Настройки программы : cabac=1 / ref=10 / deblock=1:-3:-3 / analyse=0x3:0x133 / me=umh / subme=11 / psy=1 / psy_rd=1.00:0.07 / mixed_ref=1 / me_range=48 / chroma_me=1 / trellis=2 / 8x8dct=1 / cqm=0 / deadzone=21,11 / fast_pskip=0 / chroma_qp_offset=-3 / threads=6 / lookahead_threads=1 / sliced_threads=0 / nr=0 / decimate=0 / interlaced=0 / bluray_compat=0 / constrained_intra=0 / bframes=10 / b_pyramid=2 / b_adapt=2 / b_bias=0 / direct=3 / weightb=1 / open_gop=0 / weightp=2 / keyint=240 / keyint_min=23 / scenecut=40 / intra_refresh=0 / rc_lookahead=40 / rc=2pass / mbtree=0 / bitrate=2186 / ratetol=1.0 / qcomp=0.60 / qpmin=0 / qpmax=69 / qpstep=4 / cplxblur=20.0 / qblur=0.5 / vbv_maxrate=50000 / vbv_bufsize=62500 / nal_hrd=none / filler=0 / ip_ratio=1.40 / pb_ratio=1.30 / aq=1:1.00
Язык : English
Default : Да
Forced : Нет

Аудио #1
Идентификатор : 2
Формат : AC-3
Формат/Информация : Audio Coding 3
Расширение режима : CM (complete main)
Параметр Endianness формата : Big
Идентификатор кодека : A_AC3
Продолжительность : 2 ч. 2 м.
Вид битрейта : Постоянный
Битрейт : 448 Кбит/сек
Каналы : 6 каналов
Расположение каналов : Front: L C R, Side: L R, LFE
Частота : 48,0 КГц
Частота кадров : 31,250 кадров/сек (1536 spf)
Битовая глубина : 16 бит
Метод сжатия : С потерями
Размер потока : 391 Мбайт (12%)
Заголовок : License
Язык : Russian
Default : Да
Forced : Нет

Аудио #2
Идентификатор : 3
Формат : AC-3
Формат/Информация : Audio Coding 3
Расширение режима : CM (complete main)
Параметр Endianness формата : Big
Идентификатор кодека : A_AC3
Продолжительность : 2 ч. 2 м.
Вид битрейта : Постоянный
Битрейт : 192 Кбит/сек
Каналы : 2 канала
Расположение каналов : Front: L R
Частота : 48,0 КГц
Частота кадров : 31,250 кадров/сек (1536 spf)
Битовая глубина : 16 бит
Метод сжатия : С потерями
Размер потока : 168 Мбайт (5%)
Заголовок : Студия "Paradox" & Omskbird records
Язык : Russian
Default : Нет
Forced : Нет

Аудио #3
Идентификатор : 4
Формат : AC-3
Формат/Информация : Audio Coding 3
Расширение режима : CM (complete main)
Параметр Endianness формата : Big
Идентификатор кодека : A_AC3
Продолжительность : 2 ч. 2 м.
Вид битрейта : Постоянный
Битрейт : 448 Кбит/сек
Каналы : 6 каналов
Расположение каналов : Front: L C R, Side: L R, LFE
Частота : 48,0 КГц
Частота кадров : 31,250 кадров/сек (1536 spf)
Битовая глубина : 16 бит
Метод сжатия : С потерями
Размер потока : 391 Мбайт (12%)
Заголовок : A.Matveev [UNCENSORED]
Язык : Russian
Default : Нет
Forced : Нет

Аудио #4
Идентификатор : 5
Формат : AC-3
Формат/Информация : Audio Coding 3
Расширение режима : CM (complete main)
Параметр Endianness формата : Big
Идентификатор кодека : A_AC3
Продолжительность : 2 ч. 2 м.
Вид битрейта : Постоянный
Битрейт : 448 Кбит/сек
Каналы : 6 каналов
Расположение каналов : Front: L C R, Side: L R, LFE
Частота : 48,0 КГц
Частота кадров : 31,250 кадров/сек (1536 spf)
Битовая глубина : 16 бит
Метод сжатия : С потерями
Размер потока : 391 Мбайт (12%)
Заголовок : Original
Язык : English
Default : Нет
Forced : Нет

Текст #1
Идентификатор : 6
Формат : UTF-8
Идентификатор кодека : S_TEXT/UTF8
Идентификатор кодека/Информация : UTF-8 Plain Text
Заголовок : A.Matveev [UNCENSORED]
Язык : Russian
Default : Нет
Forced : Нет

Текст #2
Идентификатор : 7
Формат : UTF-8
Идентификатор кодека : S_TEXT/UTF8
Идентификатор кодека/Информация : UTF-8 Plain Text
Заголовок : SDH
Язык : English
Default : Нет
Forced : Нет

Меню
00:00:00.000 : en:Chapter 01
00:04:47.662 : en:Chapter 02
00:13:07.495 : en:Chapter 03
00:18:11.924 : en:Chapter 04
00:22:46.448 : en:Chapter 05
00:27:51.169 : en:Chapter 06
00:33:12.907 : en:Chapter 07
00:37:18.736 : en:Chapter 08
00:42:19.912 : en:Chapter 09
00:47:43.694 : en:Chapter 10
00:52:04.371 : en:Chapter 11
00:55:56.269 : en:Chapter 12
01:00:17.447 : en:Chapter 13
01:06:20.643 : en:Chapter 14
01:11:25.030 : en:Chapter 15
01:16:35.882 : en:Chapter 16
01:21:10.031 : en:Chapter 17
01:28:18.793 : en:Chapter 18
01:31:21.559 : en:Chapter 19
01:34:52.436 : en:Chapter 20
01:39:23.666 : en:Chapter 21
01:43:35.876 : en:Chapter 22
01:50:49.309 : en:Chapter 23
01:55:27.754 : en:Chapter 24



Релиз от: Rip by:


_________________
Проголосуй за трекер Открытый торрент трекер - RUS-MEDIA.ORG

Проголосуй Открытый торрент трекер - RUS-MEDIA.ORG


Вернуться к началу
 Профиль Отправить личное сообщение  
 
   Похожие торренты   Автор   Торрент   Размер 
В этой теме нет новых непрочитанных сообщений. Чужой: Завет / Alien: Covenant [ужасы, фантастика, триллер, 2017] BDRip-AVC, Dub [Лицензия]

salma3

564 | 44

1.46 ГБ

В этой теме нет новых непрочитанных сообщений. Чужой: Завет / Alien: Covenant [ужасы, фантастика, триллер, 2017] BDRip, Dub [Лицензия]

salma3

383 | 94

2.18 ГБ

В этой теме нет новых непрочитанных сообщений. Чужой: Завет / Alien: Covenant [ужасы, фантастика, триллер, 2017] BDRip, Dub [Лицензия]

salma3

2909 | 667

1.46 ГБ

В этой теме нет новых непрочитанных сообщений. Чужой: Завет / Alien: Covenant [ужасы, фантастика, триллер, 2017] BDRip-AVC, Dub [Лицензия]

salma3

1181 | 107

2.18 ГБ

В этой теме нет новых непрочитанных сообщений. Чужой: Завет / Alien: Covenant [ужасы, фантастика, триллер, 2017] BDRip 720p, Dub [Лицензия]

salma3

528 | 40

5.24 ГБ

В этой теме нет новых непрочитанных сообщений. Чужой: Завет / Alien: Covenant [ужасы, фантастика, триллер, 2017] BDRip 720p, Dub [Лицензия]

salma3

1997 | 129

4.87 ГБ

В этой теме нет новых непрочитанных сообщений. Чужой: Завет / Alien: Covenant [ужасы, фантастика, триллер, 2017] BDRip 1080p, Dub [Лицензия]

salma3

885 | 156

17.08 ГБ


Начать новую тему Ответить на тему  [ 1 сообщение ] 




Для Мосгорсуда, Роскомнадзора и рекламодателей:: mosgorsud-torrent[собачка]yandex.ru
cron