Торрент файл
скачать торрент магнет ссылка Добавлен: 06 май 2017, 12:09
Размер: 3.55 ГБ
Сидеров: 77
Личеров: 14
Автор

СообщениеДобавлено: 06 май 2017, 12:09 

Не в сети
Супермодератор
Аватара пользователя
Дата регистрации:
15 фев 2012, 16:44
Возраст: 28
Спасибо: 7290 / 2147
Сообщения: 70396
Год выхода: 2006
Жанр: драма, криминал
Режиссер: Марк Райделл

В ролях: Ким Бэсинджер, Дэнни ДеВито, Келси Грэммер, Ник Кэннон, Рэй Лиотта, Форест Уитейкер, Карла Гуджино, Грант Салливан, Джей Мор, Кассандра Хепберн, ...

О фильме: В центре фильма — истории нескольких людей, никак не связанных между собой и даже не знакомых друг с другом. Единственное, что объединяет их — это пристрастие к азартным играм. Тяга к азарту разрушает их жизни, но они не могут остановиться, ведь в мире нет ничего важнее, чем их страсть — страсть к игре по-крупному…



Страна: США, Германия
Продолжительность: 01:48:04
Перевод: Профессиональный (многоголосый, закадровый) ?

Кодек: x264
Качество: DVDRip-AVC
Видео: 1024x552, 3800 kbps, 25 fps
Аудио #1: AC-3, 6 ch, 448 kbps (Rus) - MVO
Аудио #2: AC-3, 6 ch, 448 kbps (Eng)
Субтитры: Русские, Английские

За исходник спасибо - xuser
x264 [info]: frame I:1071 Avg QP:12.83 size: 69010
x264 [info]: frame P:32539 Avg QP:15.43 size: 34901
x264 [info]: frame B:128491 Avg QP:16.95 size: 14548
x264 [info]: consecutive B-frames: 1.8% 2.2% 6.7% 11.0% 11.2% 55.9% 4.6% 2.0% 1.8% 0.7% 0.6% 1.2% 0.5%
Общее
Уникальный идентификатор : 248944702863488147879680888020231905840 (0xBB49017A69F396BC83D2428F17F9E230)
Полное имя : Крупная ставка (Even Money) 2006 DVDRip.mkv
Формат : Matroska
Версия формата : Version 2
Размер файла : 3,55 Гбайт
Продолжительность : 1 ч. 48 м.
Общий поток : 4697 Кбит/сек
Дата кодирования : UTC 2017-05-04 09:33:16
Программа кодирования : mkvmerge v4.0.0 ('The Stars were mine') сборка от Jun 6 2010 16:18:42
Библиотека кодирования : libebml v1.0.0 + libmatroska v1.0.0
Видео
Идентификатор : 1
Формат : AVC
Формат/Информация : Advanced Video Codec
Профиль формата : [email protected]
Параметр CABAC формата : Да
Параметр ReFrames формата : 12 кадров
Идентификатор кодека : V_MPEG4/ISO/AVC
Продолжительность : 1 ч. 48 м.
Битрейт : 3800 Кбит/сек
Ширина : 1024 пикселя
Высота : 552 пикселя
Соотношение сторон : 1,85:1
Режим частоты кадров : Постоянный
Частота кадров : 25,000 кадров/сек
Цветовое пространство : YUV
Субдискретизация насыщенности : 4:2:0
Битовая глубина : 8 бит
Тип развёртки : Прогрессивная
Бит/(Пиксели*Кадры) : 0.269
Размер потока : 2,80 Гбайт (79%)
Библиотека кодирования : x264 core 146 r2538 121396c
Настройки программы : cabac=1 / ref=12 / deblock=1:-3:-3 / analyse=0x3:0x133 / me=umh / subme=11 / psy=1 / psy_rd=1.00:0.00 / mixed_ref=1 / me_range=32 / chroma_me=1 / trellis=2 / 8x8dct=1 / cqm=0 / deadzone=21,11 / fast_pskip=0 / chroma_qp_offset=-2 / threads=12 / lookahead_threads=2 / sliced_threads=0 / nr=0 / decimate=0 / interlaced=0 / bluray_compat=0 / constrained_intra=0 / bframes=12 / b_pyramid=2 / b_adapt=2 / b_bias=0 / direct=3 / weightb=1 / open_gop=0 / weightp=2 / keyint=250 / keyint_min=25 / scenecut=40 / intra_refresh=0 / rc=2pass / mbtree=0 / bitrate=3800 / ratetol=1.0 / qcomp=0.60 / qpmin=0 / qpmax=69 / qpstep=4 / cplxblur=20.0 / qblur=0.5 / ip_ratio=1.40 / pb_ratio=1.30 / aq=1:0.80
Язык : English
Default : Нет
Forced : Нет
Аудио #1
Идентификатор : 2
Формат : AC-3
Формат/Информация : Audio Coding 3
Расширение режима : CM (complete main)
Параметр Endianness формата : Big
Идентификатор кодека : A_AC3
Продолжительность : 1 ч. 48 м.
Вид битрейта : Постоянный
Битрейт : 448 Кбит/сек
Каналы : 6 каналов
Расположение каналов : Front: L C R, Side: L R, LFE
Частота : 48,0 КГц
Частота кадров : 31,250 кадров/сек (1536 spf)
Метод сжатия : С потерями
Размер потока : 346 Мбайт (10%)
Заголовок : MVO
Язык : Russian
Default : Нет
Forced : Нет
Аудио #2
Идентификатор : 3
Формат : AC-3
Формат/Информация : Audio Coding 3
Расширение режима : CM (complete main)
Параметр Endianness формата : Big
Идентификатор кодека : A_AC3
Продолжительность : 1 ч. 48 м.
Вид битрейта : Постоянный
Битрейт : 448 Кбит/сек
Каналы : 6 каналов
Расположение каналов : Front: L C R, Side: L R, LFE
Частота : 48,0 КГц
Частота кадров : 31,250 кадров/сек (1536 spf)
Метод сжатия : С потерями
Размер потока : 346 Мбайт (10%)
Язык : English
Default : Нет
Forced : Нет
Текст #1
Идентификатор : 4
Формат : UTF-8
Идентификатор кодека : S_TEXT/UTF8
Идентификатор кодека/Информация : UTF-8 Plain Text
Язык : Russian
Default : Нет
Forced : Нет
Текст #2
Идентификатор : 5
Формат : UTF-8
Идентификатор кодека : S_TEXT/UTF8
Идентификатор кодека/Информация : UTF-8 Plain Text
Язык : English
Default : Нет
Forced : Нет


_________________
Проголосуй за трекер Открытый торрент трекер - RUS-MEDIA.ORG

Проголосуй Открытый торрент трекер - RUS-MEDIA.ORG


Вернуться к началу
 Профиль Отправить личное сообщение  
 
   Похожие торренты   Автор   Торрент   Размер 
В этой теме нет новых непрочитанных сообщений. Там, где деньги / Where the Money Is [драма, комедия, криминал, 2000] HDRip, Dvo

salma3

71 | 33

1.45 ГБ

В этой теме нет новых непрочитанных сообщений. Бесплатные деньги / Money for Nothing [драма, комедия, криминал, 1993] BDRip, Avo [Горчаков]

salma3

25 | 31

1.46 ГБ

В этой теме нет новых непрочитанных сообщений. Бесплатные деньги / Money for Nothing [драма, комедия, криминал, 1993] BDRip 1080p, Dvo+Avo+Sub

salma3

199 | 159

9.72 ГБ

В этой теме нет новых непрочитанных сообщений. Крупная рыба / Big Fish [фэнтези, драма, приключения, 2003] BDRip 1080p, Dub+Sub

salma3

69 | 32

7.95 ГБ

В этой теме нет новых непрочитанных сообщений. Финансовый монстр / Money Monster [триллер, драма, криминал, 2016] BDRip, dub [Лицензия]

marya111

214 | 24

1.45 ГБ

В этой теме нет новых непрочитанных сообщений. Финансовый монстр / Money Monster [триллер, драма, криминал, 2016] BDRip-AVC, Dub [Лицензия]

salma3

168 | 19

1.46 ГБ

В этой теме нет новых непрочитанных сообщений. Финансовый монстр / Money Monster [триллер, драма, криминал, 2016] BDRip-AVC, Dub+Sub [Лицензия]

salma3

116 | 23

2.17 ГБ


Начать новую тему Ответить на тему  [ 1 сообщение ] 




Для Мосгорсуда, Роскомнадзора и рекламодателей:: mosgorsud-torrent[собачка]yandex.ru
cron