Торрент файл
скачать торрент магнет ссылка Добавлен: 30 мар 2017, 12:04
Размер: 1.46 ГБ
Сидеров: 78
Личеров: 28
Статус: (salma3)
Автор

СообщениеДобавлено: 30 мар 2017, 12:04 

Не в сети
Супермодератор
Аватара пользователя
Дата регистрации:
15 фев 2012, 16:44
Возраст: 28
Спасибо: 7223 / 2147
Сообщения: 67717
Год выпуска: 2016
Жанр: драма
Режиссер: Дэвид Фрэнкел

В ролях: Уилл Смит, Эдвард Нортон, Кейт Уинслет, Майкл Пенья, Хелен Миррен, Наоми Харрис, Кира Найтли, Джейкоб Латимор, Энн Дауд, Лиза Колон-Зайас

Описание:
Главный герой работает в рекламном агентстве Нью-Йорка. Не так давно в его личной жизни произошла трагедия, ввергнувшая его в тяжелейшую депрессию. Коллеги пытаются помочь и разрабатывают нетрадиционный план по возвращению друга обратно на твёрдую почву, однако план срабатывает неожиданным образом.



Страна: США
Продолжительность: 01:36:39
Перевод: Профессиональный (полное дублирование)[Лицензия]

Формат: BDRip-AVC
Видео: 1032x430 (2.40:1), 23.976 fps, AVC MPEG-4 (H.264), ~1715 kbps, 0.161 bit/pixel
Аудио: 48 kHz, AC3 Dolby Digital, 6 ch, ~448 kbps
Субтитры: Русские

Формат : Matroska
Версия формата : Version 4 / Version 2
Размер файла : 1,46 Гбайт
Продолжительность : 1 ч. 36 м.
Общий поток : 2165 Кбит/сек
Название фильма : Collateral Beauty (2016)
Дата кодирования : UTC 2017-03-30 17:01:34
Программа кодирования : mkvmerge v5.9.0 ('On The Loose') built on Dec 15 2012 16:39:58
Библиотека кодирования : libebml v1.3.0 + libmatroska v1.4.0

Видео
Идентификатор : 1
Формат : AVC
Формат/Информация : Advanced Video Codec
Профиль формата :
Параметр CABAC формата : Да
Параметр ReFrames формата : 11 кадров
Идентификатор кодека : V_MPEG4/ISO/AVC
Продолжительность : 1 ч. 36 м.
Битрейт : 1715 Кбит/сек
Ширина : 1032 пикселя
Высота : 430 пикселей
Соотношение сторон : 2,40:1
Режим частоты кадров : Постоянный
Частота кадров : 23,976 кадра/сек
Цветовое пространство : YUV
Субдискретизация насыщенности : 4:2:0
Битовая глубина : 8 бит
Тип развёртки : Прогрессивная
Бит/(Пиксели*Кадры) : 0.161
Размер потока : 1,13 Гбайт (79%)
Заголовок : potroks
Библиотека кодирования : x264 core 146 r2538 121396c
Настройки программы : cabac=1 / ref=11 / deblock=1:-2:-2 / analyse=0x3:0x113 / me=umh / subme=11 / psy=1 / psy_rd=1.03:0.10 / mixed_ref=1 / me_range=56 / chroma_me=1 / trellis=2 / 8x8dct=1 / cqm=0 / deadzone=21,11 / fast_pskip=0 / chroma_qp_offset=-3 / threads=9 / lookahead_threads=2 / sliced_threads=0 / nr=0 / decimate=0 / interlaced=0 / bluray_compat=0 / constrained_intra=0 / bframes=12 / b_pyramid=2 / b_adapt=2 / b_bias=0 / direct=3 / weightb=1 / open_gop=0 / weightp=2 / keyint=240 / keyint_min=23 / scenecut=40 / intra_refresh=0 / rc_lookahead=60 / rc=2pass / mbtree=0 / bitrate=1715 / ratetol=1.0 / qcomp=0.70 / qpmin=0 / qpmax=69 / qpstep=4 / cplxblur=20.0 / qblur=0.5 / vbv_maxrate=14000 / vbv_bufsize=14000 / nal_hrd=none / filler=0 / ip_ratio=1.40 / pb_ratio=1.30 / aq=1:0.80
Язык : English
Default : Да
Forced : Нет

Аудио
Идентификатор : 2
Формат : AC-3
Формат/Информация : Audio Coding 3
Расширение режима : CM (complete main)
Параметр Endianness формата : Big
Идентификатор кодека : A_AC3
Продолжительность : 1 ч. 36 м.
Вид битрейта : Постоянный
Битрейт : 448 Кбит/сек
Каналы : 6 каналов
Расположение каналов : Front: L C R, Side: L R, LFE
Частота : 48,0 КГц
Частота кадров : 31,250 кадров/сек (1536 spf)
Метод сжатия : С потерями
Размер потока : 309 Мбайт (21%)
Язык : Russian
Default : Да
Forced : Нет

Текст #1
Идентификатор : 3
Формат : UTF-8
Идентификатор кодека : S_TEXT/UTF8
Идентификатор кодека/Информация : UTF-8 Plain Text
Заголовок : Forced
Язык : Russian
Default : Да
Forced : Нет

Текст #2
Идентификатор : 4
Формат : UTF-8
Идентификатор кодека : S_TEXT/UTF8
Идентификатор кодека/Информация : UTF-8 Plain Text
Заголовок : iTunes
Язык : Russian
Default : Нет
Forced : Нет

Меню
00:00:00.000 : en:(01)00:00:00:000
00:10:20.077 : en:(02)00:10:20:077
00:21:30.414 : en:(03)00:21:30:414
00:33:57.118 : en:(04)00:33:57:118
00:42:43.310 : en:(05)00:42:43:310
00:53:07.184 : en:(06)00:53:07:184
01:01:04.327 : en:(07)01:01:04:327
01:08:55.047 : en:(08)01:08:55:047
01:22:15.931 : en:(09)01:22:15:931
01:33:09.625 : en:(10)01:33:09:625




Автор рипа: potroks


_________________
Проголосуй за трекер Открытый торрент трекер - RUS-MEDIA.ORG

Проголосуй Открытый торрент трекер - RUS-MEDIA.ORG


Вернуться к началу
 Профиль Отправить личное сообщение  
 
   Похожие торренты   Автор   Торрент   Размер 
В этой теме нет новых непрочитанных сообщений. Призрачная красота / Collateral Beauty [драма, 2016] BDRip, Dub+Sub [Лицензия]

salma3

4196 | 110

1.46 ГБ

В этой теме нет новых непрочитанных сообщений. Призрачная красота / Collateral Beauty [драма, 2016] BDRip-AVC, Dub+Sub [Лицензия]

salma3

325 | 33

2.18 ГБ

В этой теме нет новых непрочитанных сообщений. Призрачная красота / Collateral Beauty [драма, 2016] BDRip 720p, Dub+Sub [Лицензия]

salma3

132 | 71

5.5 ГБ

В этой теме нет новых непрочитанных сообщений. Призрачная красота / Collateral Beauty [драма, 2016] BDRip-HEVC 720p, Dub [Лицензия]

salma3

262 | 44

2.07 ГБ

В этой теме нет новых непрочитанных сообщений. Призрачная красота / Collateral Beauty [драма, мелодрама, 2016] BDRip 720p, Dub [iPad] [Лицензия]

salma3

77 | 4

2.07 ГБ

В этой теме нет новых непрочитанных сообщений. Призрачная красота / Collateral Beauty [драма, 2016] Blu-ray 1080p, Dub+Sub [Лицензия]

salma3

24 | 21

33.48 ГБ

В этой теме нет новых непрочитанных сообщений. Призрачная красота / Collateral Beauty [драма, 2016] BDRip 1080p, Dub [iTunes]

salma3

6017 | 1145

7.91 ГБ


Начать новую тему Ответить на тему  [ 1 сообщение ] 




Для Мосгорсуда, Роскомнадзора и рекламодателей:: mosgorsud-torrent[собачка]yandex.ru
cron