Торрент файл
скачать торрент магнет ссылка Добавлен: 13 дек 2016, 20:09
Размер: 3.12 ГБ
Сидеров: 62
Личеров: 6
Автор

СообщениеДобавлено: 13 дек 2016, 20:09 

Не в сети
Дата регистрации:
28 сен 2016, 18:10
Спасибо: 216 / 0
Сообщения: 1996

Название: Спокойной ночи
Оригинальное название: The Good Night
Год выхода: 2007
Страна: США, Великобритания, Германия
Студия: Good Night Productions, Inferno Distribution, Destination Films
Продолжительность: 01:33:10
Жанр: фэнтези, драма, мелодрама, комедия, музыка
Режиссер: Джейк Пэлтроу
В ролях: Гвинет Пэлтроу, Мартин Фриман, Дэнни ДеВито, Пенелопа Крус, Саймон Пегг, Питер Рник, Стеффан Бойе, Стивен Грэм, Кит Аллен, Соня Дубелл, ...
Перевод: Профессиональный (многоголосный, закадровый) CP-Digital
О фильме: Гарри находится на распутье: работа достала, жена — еще хуже. И потом — ему уже 34! Кризис среднего возраста вгоняет Гарри в жестокую депрессию, пока он не встречает Анну, молодую, сексапильную, смешливую особу. Анна — настоящая девушка мечты, и это главная проблема. Ведь Гарри может встречаться с возлюбленной только… во сне…

Кодек: MPEG4/ISO/AVC
Качество: WEB-DL 720p
Видео: 1280x720, 3867 kbps, 23,976 fps
Аудио #1: AC-3, 6 ch, 448 kbps (Rus) - MVO CP-Digital
Аудио #2: AC-3, 6 ch, 384 kbps (Eng)
Субтитры: Русские, Английские
Общее
Уникальный идентификатор : 196945230747375832637551495012874983463 (0x942A459019F3B8BF854BA8552CA41827)
Полное имя : Спокойной ночи (The Good Night) 2007 WEB-DL 720p.mkv
Формат : Matroska
Версия формата : Version 2
Размер файла : 3,12 Гбайт
Продолжительность : 1 ч. 33 м.
Общий поток : 4794 Кбит/сек
Дата кодирования : UTC 2016-12-08 15:23:40
Программа кодирования : mkvmerge v4.0.0 ('The Stars were mine') сборка от Jun 6 2010 16:18:42
Библиотека кодирования : libebml v1.0.0 + libmatroska v1.0.0
Видео
Идентификатор : 1
Формат : AVC
Формат/Информация : Advanced Video Codec
Профиль формата : [email protected]
Параметр CABAC формата : Нет
Параметр ReFrames формата : 2 кадра
Идентификатор кодека : V_MPEG4/ISO/AVC
Продолжительность : 1 ч. 33 м.
Битрейт : 3867 Кбит/сек
Ширина : 1280 пикселей
Высота : 720 пикселей
Соотношение сторон : 16:9
Режим частоты кадров : Постоянный
Частота кадров : 23,976 кадра/сек
Цветовое пространство : YUV
Субдискретизация насыщенности : 4:2:0
Битовая глубина : 8 бит
Тип развёртки : Прогрессивная
Бит/(Пиксели*Кадры) : 0.175
Размер потока : 2,52 Гбайт (81%)
Язык : English
Default : Нет
Forced : Нет
Цветовой диапазон : Limited
Основные цвета : BT.709
Характеристики трансфера : BT.709
Коэффициенты матрицы : BT.709
Аудио #1
Идентификатор : 2
Формат : AC-3
Формат/Информация : Audio Coding 3
Расширение режима : CM (complete main)
Параметр Endianness формата : Big
Идентификатор кодека : A_AC3
Продолжительность : 1 ч. 33 м.
Вид битрейта : Постоянный
Битрейт : 448 Кбит/сек
Каналы : 6 каналов
Расположение каналов : Front: L C R, Side: L R, LFE
Частота : 48,0 КГц
Частота кадров : 31,250 кадров/сек (1536 spf)
Метод сжатия : С потерями
Размер потока : 299 Мбайт (9%)
Заголовок : MVO CP-Digital
Язык : Russian
Default : Нет
Forced : Нет
Аудио #2
Идентификатор : 3
Формат : AC-3
Формат/Информация : Audio Coding 3
Расширение режима : CM (complete main)
Параметр Endianness формата : Big
Идентификатор кодека : A_AC3
Продолжительность : 1 ч. 33 м.
Вид битрейта : Постоянный
Битрейт : 384 Кбит/сек
Каналы : 6 каналов
Расположение каналов : Front: L C R, Side: L R, LFE
Частота : 48,0 КГц
Частота кадров : 31,250 кадров/сек (1536 spf)
Метод сжатия : С потерями
Размер потока : 256 Мбайт (8%)
Язык : English
Default : Нет
Forced : Нет
Текст #1
Идентификатор : 4
Формат : UTF-8
Идентификатор кодека : S_TEXT/UTF8
Идентификатор кодека/Информация : UTF-8 Plain Text
Язык : Russian
Default : Нет
Forced : Нет
Текст #2
Идентификатор : 5
Формат : UTF-8
Идентификатор кодека : S_TEXT/UTF8
Идентификатор кодека/Информация : UTF-8 Plain Text
Язык : English
Default : Нет
Forced : Нет





Вернуться к началу
 Профиль Отправить личное сообщение  
 
   Похожие торренты   Автор   Торрент   Размер 
В этой теме нет новых непрочитанных сообщений. Спокойной ночи / The Good Night [фэнтези, драма, мелодрама, комедия, музыка, 2005] DVDRip-AVC, Mvo

salma3

214 | 45

2.93 ГБ

В этой теме нет новых непрочитанных сообщений. 30 дней ночи / 30 Days of Night [ужасы, триллер, драма, 2007] BDRip 720p, Dub

salma3

0 | 1

5.75 ГБ

В этой теме нет новых непрочитанных сообщений. Под покровом ночи / В холоде ночи / In The Cold Of The Night [Триллер, мелодрама, детектив, 1990] DVDRip, Avo

salma3

21 | 7

1.45 ГБ

В этой теме нет новых непрочитанных сообщений. 30 дней ночи / 30 Days of Night [ужасы, триллер, 2007] BDRip 1080p, Dub

salma3

51 | 21

18.96 ГБ

В этой теме нет новых непрочитанных сообщений. 30 дней ночи / 30 Days of Night [ужасы, триллер, 2007] BDRip-HEVC 1080p, Dub

salma3

10 | 2

7.45 ГБ

В этой теме нет новых непрочитанных сообщений. Закон ночи / Live by Night [Драма, криминал, 2016] BDRip 720p, Dub+Sub [iTunes]

salma3

476 | 544

5.66 ГБ

В этой теме нет новых непрочитанных сообщений. Пропавшая в ночи / Gone in the Night [драма, 1996] DVDRip, Avo

salma3

21 | 6

2.87 ГБ


Начать новую тему Ответить на тему  [ 1 сообщение ] 




Для Мосгорсуда, Роскомнадзора и рекламодателей:: mosgorsud-torrent[собачка]yandex.ru
cron