Торрент файл
скачать торрент магнет ссылка Добавлен: 23 сен 2017, 23:18
Размер: 935.93 МБ
Сидеров: 19
Личеров: 3
Автор

СообщениеДобавлено: 23 сен 2017, 23:20 

Не в сети
Дата регистрации:
01 июн 2013, 09:32
Спасибо: 3 / 13
Сообщения: 9
Название: Sex Mix
Исполнитель: Frankie Goes To Hollywood
Год: 2012
Жанр: New Wave
Страна: U.K.

Продолжительность: 72:59 + 68:46
Формат/Кодек: FLAC (*.flac)
Битрейт аудио: lossless



Disc One:
1. “all in the body” (MONO) 00:01:23
2. The Soundtrack from Bernard Rose’s Video of the Welcome to the Pleasuredome Single (MONO) 00:05:43
3. Get It On (MONO) 00:04:11
4. Welcome to the Pleasuredome (How to Remake the World, Completely) (MONO) 00:11:40
5. “all in the mind” (MONO) 00:01:13
6. Relax (International) 00:04:41
7. The Power of Love (extended, singlette version) 00:09:20
8. “scrapped” 00:01:39
9. Holier Than Thou 00:01:08
10. “trapped” 00:02:29
11. Holier Than Thou 00:04:09
12. The Power of Love (instrumental, singlette version) 00:03:32
13. The World is My Oyster (in its 7” form) 00:04:17
14. “don’t lose what's left” 00:00:18
15. Rage Hard 00:17:12
Disc Two:
1. Relax (Sex Mix) 00:16:00
2. Later On (from One September Monday) 00:01:36
3. Ferry Cross The Mersey (…and here I’ll stay) 00:04:03
4. Two Tribes (Keep The Peace, intro) 00:00:24
5. One February Friday (singlette version, part 1) 00:00:39
6. Two Tribes (Carnage) 00:07:54
7. One February Friday (singlette version, part 2) 00:01:08
8. War (somewhere between Hiding and Hidden) 00:04:15
9. One February Friday (singlette version, part 3) 00:00:22
10. Two Tribes (Keep The Peace, outro) 00:00:05
11. Warriors of the Wasteland (Compacted) 00:23:37
12. Do You Think I'm Sexy? 00:03:30
13. Watching the Wildlife (Voiceless) 00:03:50


Frankie Goes to Hollywood (FGTH) — популярная в 1980-х годах группа из Великобритании. Группу основал в Ливерпуле Холли Джонсон (вокалист), в её состав также вошли Пол Рутерфорд (вокалист, клавишник), Питер Джилл (басы, ударные), Марк О’Тул (бас-гитара) и Брайан Нэш (гитара). В 1985 году Frankie Goes to Hollywood получили награду Brit Award в категории Best British Newcomer, а также номинации Grammy Award и MTV Video Music Award в категории Best New Artist

Exact Audio Copy V1.0 beta 2 from 29. April 2011

EAC extraction logfile from 3. July 2012, 15:23

Frankie Goes To Hollywood / Sexmix

Used drive : HL-DT-STDVDRAM GH15F Adapter: 1 ID: 0

Read mode : Secure
Utilize accurate stream : Yes
Defeat audio cache : Yes
Make use of C2 pointers : No

Read offset correction : 667
Overread into Lead-In and Lead-Out : No
Fill up missing offset samples with silence : Yes
Delete leading and trailing silent blocks : No
Null samples used in CRC calculations : Yes
Used interface : Native Win32 interface for Win NT & 2000
Gap handling : Appended to previous track

Used output format : User Defined Encoder
Selected bitrate : 128 kBit/s
Quality : High
Add ID3 tag : No
Command line compressor : C:Program FilesExact Audio CopyFlacflac.exe
Additional command line options : -8 -V -T "ARTIST=%artist%" -T "TITLE=%title%" -T "ALBUM=%albumtitle%" -T "DATE=%year%" -T "TRACKNUMBER=%tracknr%" -T "GENRE=%genre%" -T "PERFORMER=%albuminterpret%" -T "COMPOSER=%composer%" %haslyrics%--tag-from-file=LYRICS

TOC of the extracted CD

Track | Start | Length | Start sector | End sector
---------------------------------------------------------
1 | 0:00.00 | 1:22.68 | 0 | 6217
2 | 1:22.68 | 5:43.24 | 6218 | 31966
3 | 7:06.17 | 4:09.59 | 31967 | 50700
4 | 11:16.01 | 11:40.17 | 50701 | 103217
5 | 22:56.18 | 1:13.61 | 103218 | 108753
6 | 24:10.04 | 4:43.49 | 108754 | 130027
7 | 28:53.53 | 9:19.74 | 130028 | 172026
8 | 38:13.52 | 1:39.09 | 172027 | 179460
9 | 39:52.61 | 1:07.56 | 179461 | 184541
10 | 41:00.42 | 2:28.53 | 184542 | 195694
11 | 43:29.20 | 4:08.58 | 195695 | 214352
12 | 47:38.03 | 3:31.65 | 214353 | 230242
13 | 51:09.68 | 4:17.36 | 230243 | 249553
14 | 55:27.29 | 0:18.71 | 249554 | 250974
15 | 55:46.25 | 17:13.03 | 250975 | 328452

Track 1

Filename J:Frankie Goes To Hollywood - Sex Mix (2012) (flac)Disc 11 Happy Hi! (All In The Body).wav

Pre-gap length 0:00:02.00

Peak level 99.1 %
Extraction speed 2.6 X
Track quality 100.0 %
Test CRC DDEAEF8B
Copy CRC DDEAEF8B
Track not present in AccurateRip database
Copy OK

Track 2

Filename J:Frankie Goes To Hollywood - Sex Mix (2012) (flac)Disc 12 The Soundtrack From Bernard Rose’s Video Of The Welcome To The Pleasuredome Single.wav

Peak level 99.4 %
Extraction speed 3.9 X
Track quality 100.0 %
Test CRC 64FBF816
Copy CRC 64FBF816
Track not present in AccurateRip database
Copy OK

Track 3

Filename J:Frankie Goes To Hollywood - Sex Mix (2012) (flac)Disc 13 Get It On.wav

Peak level 99.4 %
Extraction speed 4.2 X
Track quality 100.0 %
Test CRC 4E373B4E
Copy CRC 4E373B4E
Track not present in AccurateRip database
Copy OK

Track 4

Filename J:Frankie Goes To Hollywood - Sex Mix (2012) (flac)Disc 14 Welcome To The Pleasuredome (How To Remake The World).wav

Peak level 99.4 %
Extraction speed 5.1 X
Track quality 100.0 %
Test CRC 48AA00F5
Copy CRC 48AA00F5
Track not present in AccurateRip database
Copy OK

Track 5

Filename J:Frankie Goes To Hollywood - Sex Mix (2012) (flac)Disc 15 Happy Hi! (All In The Mind).wav

Peak level 99.4 %
Extraction speed 3.9 X
Track quality 100.0 %
Test CRC 28637970
Copy CRC 28637970
Track not present in AccurateRip database
Copy OK

Track 6

Filename J:Frankie Goes To Hollywood - Sex Mix (2012) (flac)Disc 16 Relax (International).wav

Pre-gap length 0:00:00.56

Peak level 99.4 %
Extraction speed 5.4 X
Track quality 100.0 %
Test CRC 12DED304
Copy CRC 12DED304
Track not present in AccurateRip database
Copy OK

Track 7

Filename J:Frankie Goes To Hollywood - Sex Mix (2012) (flac)Disc 17 The Power Of Love (Extended, Singlette Version).wav

Pre-gap length 0:00:02.53

Peak level 99.4 %
Extraction speed 6.0 X
Track quality 100.0 %
Test CRC BA4D3D63
Copy CRC BA4D3D63
Track not present in AccurateRip database
Copy OK

Track 8

Filename J:Frankie Goes To Hollywood - Sex Mix (2012) (flac)Disc 18 The World Is My Oyster (Trapped).wav

Peak level 99.4 %
Extraction speed 4.7 X
Track quality 100.0 %
Test CRC D0F06FC7
Copy CRC D0F06FC7
Track not present in AccurateRip database
Copy OK

Track 9

Filename J:Frankie Goes To Hollywood - Sex Mix (2012) (flac)Disc 19 Holier Than Thou Part 1.wav

Peak level 99.4 %
Extraction speed 4.2 X
Track quality 100.0 %
Test CRC F2B7D2B0
Copy CRC F2B7D2B0
Track not present in AccurateRip database
Copy OK

Track 10

Filename J:Frankie Goes To Hollywood - Sex Mix (2012) (flac)Disc 110 The World Is My Oyster (Scrapped).wav

Peak level 99.4 %
Extraction speed 4.5 X
Track quality 99.9 %
Test CRC B61E004E
Copy CRC B61E004E
Track not present in AccurateRip database
Copy OK

Track 11

Filename J:Frankie Goes To Hollywood - Sex Mix (2012) (flac)Disc 111 Holier Than Thou Part 2.wav

Peak level 99.4 %
Extraction speed 6.2 X
Track quality 100.0 %
Test CRC 42C0614F
Copy CRC 42C0614F
Track not present in AccurateRip database
Copy OK

Track 12

Filename J:Frankie Goes To Hollywood - Sex Mix (2012) (flac)Disc 112 The Power Of Love (Instrumental, Singlette Version).wav

Peak level 99.4 %
Extraction speed 6.2 X
Track quality 100.0 %
Test CRC A736AD90
Copy CRC A736AD90
Track not present in AccurateRip database
Copy OK

Track 13

Filename J:Frankie Goes To Hollywood - Sex Mix (2012) (flac)Disc 113 The World Is My Oyster (In Its 7'' Form).wav

Peak level 74.1 %
Extraction speed 6.4 X
Track quality 100.0 %
Test CRC 2FE48830
Copy CRC 2FE48830
Track not present in AccurateRip database
Copy OK

Track 14

Filename J:Frankie Goes To Hollywood - Sex Mix (2012) (flac)Disc 114 Later On (From One September Monday).wav

Pre-gap length 0:00:00.69

Peak level 53.2 %
Extraction speed 1.4 X
Track quality 99.4 %
Test CRC 26BD0191
Copy CRC 26BD0191
Track not present in AccurateRip database
Copy OK

Track 15

Filename J:Frankie Goes To Hollywood - Sex Mix (2012) (flac)Disc 115 Rage Hard (✚) (✚✚) ✪.wav

Pre-gap length 0:00:00.69

Peak level 99.4 %
Extraction speed 7.7 X
Track quality 100.0 %
Test CRC 7A5FFF34
Copy CRC 7A5FFF34
Track not present in AccurateRip database
Copy OK

None of the tracks are present in the AccurateRip database

No errors occurred

End of status report

---- CUETools DB Plugin V2.1.3

[CTDB TOCID: r1gTvMWp0P4BaLRhzzVC7mq3vOw-] disk not present in database, Submit result: r1gTvMWp0P4BaLRhzzVC7mq3vOw- has been uploaded

==== Log checksum 60348E58A64451779C682246747A8F4BA279FB8B07742BB2A4B9E74C16ED1C93 ====


Exact Audio Copy V1.0 beta 2 from 29. April 2011

EAC extraction logfile from 3. July 2012, 15:53

Frankie Goes To Hollywood ‎ / Sexmix

Used drive : HL-DT-STDVDRAM GH15F Adapter: 1 ID: 0

Read mode : Secure
Utilize accurate stream : Yes
Defeat audio cache : Yes
Make use of C2 pointers : No

Read offset correction : 667
Overread into Lead-In and Lead-Out : No
Fill up missing offset samples with silence : Yes
Delete leading and trailing silent blocks : No
Null samples used in CRC calculations : Yes
Used interface : Native Win32 interface for Win NT & 2000
Gap handling : Appended to previous track

Used output format : User Defined Encoder
Selected bitrate : 128 kBit/s
Quality : High
Add ID3 tag : No
Command line compressor : C:Program FilesExact Audio CopyFlacflac.exe
Additional command line options : -8 -V -T "ARTIST=%artist%" -T "TITLE=%title%" -T "ALBUM=%albumtitle%" -T "DATE=%year%" -T "TRACKNUMBER=%tracknr%" -T "GENRE=%genre%" -T "PERFORMER=%albuminterpret%" -T "COMPOSER=%composer%" %haslyrics%--tag-from-file=LYRICS

TOC of the extracted CD

Track | Start | Length | Start sector | End sector
---------------------------------------------------------
1 | 0:00.00 | 16:25.44 | 0 | 73918
2 | 16:25.44 | 1:35.38 | 73919 | 81081
3 | 18:01.07 | 4:06.46 | 81082 | 99577
4 | 22:07.53 | 0:24.15 | 99578 | 101392
5 | 22:31.68 | 0:39.48 | 101393 | 104365
6 | 23:11.41 | 7:54.46 | 104366 | 139961
7 | 31:06.12 | 1:08.11 | 139962 | 145072
8 | 32:14.23 | 4:14.08 | 145073 | 164130
9 | 36:28.31 | 0:21.62 | 164131 | 165767
10 | 36:50.18 | 0:06.13 | 165768 | 166230
11 | 36:56.31 | 23:39.11 | 166231 | 272666
12 | 60:35.42 | 4:20.28 | 272667 | 292194
13 | 64:55.70 | 3:50.54 | 292195 | 309498

Track 1

Filename J:Frankie Goes To Hollywood - Sex Mix (2012) (flac)Disc 21 Relax (Sex Mix).wav

Pre-gap length 0:00:02.00

Peak level 99.4 %
Extraction speed 5.5 X
Track quality 100.0 %
Test CRC 6A105E31
Copy CRC 6A105E31
Track not present in AccurateRip database
Copy OK

Track 2

Filename J:Frankie Goes To Hollywood - Sex Mix (2012) (flac)Disc 22 Later On (From One September Monday).wav

Pre-gap length 0:00:01.81

Peak level 87.9 %
Extraction speed 4.5 X
Track quality 100.0 %
Test CRC 6B34494E
Copy CRC 6B34494E
Track not present in AccurateRip database
Copy OK

Track 3

Filename J:Frankie Goes To Hollywood - Sex Mix (2012) (flac)Disc 23 Ferry Cross The Mersey (…And Here I'll Stay).wav

Peak level 97.4 %
Extraction speed 5.8 X
Track quality 100.0 %
Test CRC 2D785E85
Copy CRC 2D785E85
Track not present in AccurateRip database
Copy OK

Track 4

Filename J:Frankie Goes To Hollywood - Sex Mix (2012) (flac)Disc 24 Two Tribes (Keep The Peace, Intro).wav

Peak level 98.0 %
Extraction speed 1.3 X
Track quality 99.5 %
Test CRC EC629B7B
Copy CRC EC629B7B
Track not present in AccurateRip database
Copy OK

Track 5

Filename J:Frankie Goes To Hollywood - Sex Mix (2012) (flac)Disc 25 One February Friday (Singlette Version, Part 1).wav

Peak level 70.8 %
Extraction speed 3.7 X
Track quality 100.0 %
Test CRC 2E56F5E1
Copy CRC 2E56F5E1
Track not present in AccurateRip database
Copy OK

Track 6

Filename J:Frankie Goes To Hollywood - Sex Mix (2012) (flac)Disc 26 Two Tribes (Carnage).wav

Peak level 99.4 %
Extraction speed 6.9 X
Track quality 100.0 %
Test CRC ABCD08E7
Copy CRC ABCD08E7
Track not present in AccurateRip database
Copy OK

Track 7

Filename J:Frankie Goes To Hollywood - Sex Mix (2012) (flac)Disc 27 One February Friday (Singlette Version, Part 2).wav

Peak level 99.4 %
Extraction speed 5.0 X
Track quality 100.0 %
Test CRC 58668A82
Copy CRC 58668A82
Track not present in AccurateRip database
Copy OK

Track 8

Filename J:Frankie Goes To Hollywood - Sex Mix (2012) (flac)Disc 28 War (Somewhere Between Hiding And Hidden).wav

Peak level 99.4 %
Extraction speed 6.9 X
Track quality 100.0 %
Test CRC 3EC3E4F9
Copy CRC 3EC3E4F9
Track not present in AccurateRip database
Copy OK

Track 9

Filename J:Frankie Goes To Hollywood - Sex Mix (2012) (flac)Disc 29 One February Friday (Singlette Version, Part 3).wav

Peak level 67.0 %
Extraction speed 2.6 X
Track quality 100.0 %
Test CRC C669D927
Copy CRC C669D927
Track not present in AccurateRip database
Copy OK

Track 10

Filename J:Frankie Goes To Hollywood - Sex Mix (2012) (flac)Disc 210 Two Tribes (Keep The Peace, Outro).wav

Peak level 71.0 %
Extraction speed 1.0 X
Track quality 100.0 %
Test CRC 31100413
Copy CRC 31100413
Track not present in AccurateRip database
Copy OK

Track 11

Filename J:Frankie Goes To Hollywood - Sex Mix (2012) (flac)Disc 211 Warriors Of The Wasteland (Compacted).wav

Peak level 99.4 %
Extraction speed 8.6 X
Track quality 100.0 %
Test CRC 85138950
Copy CRC 85138950
Track not present in AccurateRip database
Copy OK

Track 12

Filename J:Frankie Goes To Hollywood - Sex Mix (2012) (flac)Disc 212 Do You Think I'm Sexy.wav

Pre-gap length 0:00:01.17

Peak level 99.4 %
Extraction speed 8.4 X
Track quality 100.0 %
Test CRC DD7A30EF
Copy CRC DD7A30EF
Track not present in AccurateRip database
Copy OK

Track 13

Filename J:Frankie Goes To Hollywood - Sex Mix (2012) (flac)Disc 213 Watching The Wildlife (Voiceless).wav

Pre-gap length 0:00:01.61

Peak level 99.4 %
Extraction speed 8.6 X
Track quality 100.0 %
Test CRC 898A9CB2
Copy CRC 898A9CB2
Track not present in AccurateRip database
Copy OK

None of the tracks are present in the AccurateRip database

No errors occurred

End of status report

---- CUETools DB Plugin V2.1.3

[CTDB TOCID: jDxyj2QLc8Y9AHOrMv6exXKZ1tg-] disk not present in database, Submit result: jDxyj2QLc8Y9AHOrMv6exXKZ1tg- has been uploaded

==== Log checksum 9BF20909FCF1B2192A8D8FA3403309D0EB0C8CE05B3EE9D4ECCF936970525F3C ====


REM GENRE Pop/Rock
REM DATE 2012
REM DISCID DA111B0F
REM COMMENT "ExactAudioCopy v1.0b2"
PERFORMER "Frankie Goes To Hollywood"
TITLE "Sexmix"
FILE "01 Happy Hi! (All In The Body).wav" WAVE
TRACK 01 AUDIO
TITLE "Happy Hi! (All In The Body) "
PERFORMER "Frankie Goes To Hollywood"
ISRC GBAHW1200001
INDEX 01 00:00:00
FILE "02 The Soundtrack From Bernard Rose’s Video Of The Welcome To The Pleasuredome Single.wav" WAVE
TRACK 02 AUDIO
TITLE "The Soundtrack From Bernard Rose’s Video Of The Welcome To The Pleasuredome S..."
PERFORMER "Frankie Goes To Hollywood"
ISRC GBAHW1200002
INDEX 01 00:00:00
FILE "03 Get It On.wav" WAVE
TRACK 03 AUDIO
TITLE "Get It On "
PERFORMER "Frankie Goes To Hollywood"
ISRC GBAHW1200003
INDEX 01 00:00:00
FILE "04 Welcome To The Pleasuredome (How To Remake The World).wav" WAVE
TRACK 04 AUDIO
TITLE "Welcome To The Pleasuredome (How To Remake The World) "
PERFORMER "Frankie Goes To Hollywood"
ISRC GBAHW1200004
INDEX 01 00:00:00
FILE "05 Happy Hi! (All In The Mind).wav" WAVE
TRACK 05 AUDIO
TITLE "Happy Hi! (All In The Mind)"
PERFORMER "Frankie Goes To Hollywood"
ISRC GBAHW1200005
INDEX 01 00:00:00
TRACK 06 AUDIO
TITLE "Relax (International) "
PERFORMER "Frankie Goes To Hollywood"
ISRC GBAHW0900014
INDEX 00 01:13:19
FILE "06 Relax (International).wav" WAVE
INDEX 01 00:00:00
TRACK 07 AUDIO
TITLE "The Power Of Love (Extended, Singlette Version)"
PERFORMER "Frankie Goes To Hollywood"
ISRC GBAHW1200006
INDEX 00 04:41:09
FILE "07 The Power Of Love (Extended, Singlette Version).wav" WAVE
INDEX 01 00:00:00
FILE "08 The World Is My Oyster (Trapped).wav" WAVE
TRACK 08 AUDIO
TITLE "The World Is My Oyster (Trapped)"
PERFORMER "Frankie Goes To Hollywood"
ISRC GBAHW1100032
INDEX 01 00:00:00
FILE "09 Holier Than Thou Part 1.wav" WAVE
TRACK 09 AUDIO
TITLE "Holier Than Thou Part 1"
PERFORMER "Frankie Goes To Hollywood"
ISRC GBAHW1200007
INDEX 01 00:00:00
FILE "10 The World Is My Oyster (Scrapped).wav" WAVE
TRACK 10 AUDIO
TITLE "The World Is My Oyster (Scrapped) "
PERFORMER "Frankie Goes To Hollywood"
ISRC GBAHW1200008
INDEX 01 00:00:00
FILE "11 Holier Than Thou Part 2.wav" WAVE
TRACK 11 AUDIO
TITLE "Holier Than Thou Part 2"
PERFORMER "Frankie Goes To Hollywood"
ISRC GBAHW1200009
INDEX 01 00:00:00
FILE "12 The Power Of Love (Instrumental, Singlette Version).wav" WAVE
TRACK 12 AUDIO
TITLE "The Power Of Love (Instrumental, Singlette Version)"
PERFORMER "Frankie Goes To Hollywood"
ISRC GBAHW1200010
INDEX 01 00:00:00
FILE "13 The World Is My Oyster (In Its 7'' Form).wav" WAVE
TRACK 13 AUDIO
TITLE "The World Is My Oyster (In Its 7' Form) "
PERFORMER "Frankie Goes To Hollywood"
ISRC GBAHW0900008
INDEX 01 00:00:00
TRACK 14 AUDIO
TITLE "Later On (From One September Monday) "
PERFORMER "Frankie Goes To Hollywood"
ISRC GBAHW1200011
INDEX 00 04:16:59
FILE "14 Later On (From One September Monday).wav" WAVE
INDEX 01 00:00:00
TRACK 15 AUDIO
TITLE "Rage Hard (.) (..) ."
PERFORMER "Frankie Goes To Hollywood"
ISRC GBAHW1200012
INDEX 00 00:18:19
FILE "15 Rage Hard (.) (..) ..wav" WAVE
INDEX 01 00:00:00
INDEX 02 05:13:73
INDEX 03 13:59:67


REM GENRE Pop/Rock
REM DATE 2012
REM DISCID C9101E0D
REM COMMENT "ExactAudioCopy v1.0b2"
PERFORMER "Frankie Goes To Hollywood ."
TITLE "Sexmix"
FILE "01 Relax (Sex Mix).wav" WAVE
TRACK 01 AUDIO
TITLE "Relax (Sex Mix)"
PERFORMER "Frankie Goes To Hollywood ."
ISRC GBAHW0100340
INDEX 01 00:00:00
TRACK 02 AUDIO
TITLE "Later On (From One September Monday) "
PERFORMER "Frankie Goes To Hollywood ."
ISRC GBAHW1200071
INDEX 00 16:23:58
FILE "02 Later On (From One September Monday).wav" WAVE
INDEX 01 00:00:00
FILE "03 Ferry Cross The Mersey (…And Here I'll Stay).wav" WAVE
TRACK 03 AUDIO
TITLE "Ferry Cross The Mersey (…And Here I'll Stay)"
PERFORMER "Frankie Goes To Hollywood ."
ISRC GBAHW1200072
INDEX 01 00:00:00
FILE "04 Two Tribes (Keep The Peace, Intro).wav" WAVE
TRACK 04 AUDIO
TITLE "Two Tribes (Keep The Peace, Intro) "
PERFORMER "Frankie Goes To Hollywood ."
ISRC GBAHW1200073
INDEX 01 00:00:00
FILE "05 One February Friday (Singlette Version, Part 1).wav" WAVE
TRACK 05 AUDIO
TITLE "One February Friday (Singlette Version, Part 1) "
PERFORMER "Frankie Goes To Hollywood ."
ISRC GBAHW1200074
INDEX 01 00:00:00
FILE "06 Two Tribes (Carnage).wav" WAVE
TRACK 06 AUDIO
TITLE "Two Tribes (Carnage) "
PERFORMER "Frankie Goes To Hollywood ."
ISRC GBAHW9900046
INDEX 01 00:00:00
FILE "07 One February Friday (Singlette Version, Part 2).wav" WAVE
TRACK 07 AUDIO
TITLE "One February Friday (Singlette Version, Part 2)"
PERFORMER "Frankie Goes To Hollywood ."
ISRC GBAHW1200075
INDEX 01 00:00:00
FILE "08 War (Somewhere Between Hiding And Hidden).wav" WAVE
TRACK 08 AUDIO
TITLE "War (Somewhere Between Hiding And Hidden)"
PERFORMER "Frankie Goes To Hollywood ."
ISRC GBAHW9900025
INDEX 01 00:00:00
FILE "09 One February Friday (Singlette Version, Part 3).wav" WAVE
TRACK 09 AUDIO
TITLE "One February Friday (Singlette Version, Part 3) "
PERFORMER "Frankie Goes To Hollywood ."
ISRC GBAHW1200076
INDEX 01 00:00:00
FILE "10 Two Tribes (Keep The Peace, Outro).wav" WAVE
TRACK 10 AUDIO
TITLE "Two Tribes (Keep The Peace, Outro) "
PERFORMER "Frankie Goes To Hollywood ."
ISRC GBAHW1200077
INDEX 01 00:00:00
FILE "11 Warriors Of The Wasteland (Compacted).wav" WAVE
TRACK 11 AUDIO
TITLE "Warriors Of The Wasteland (Compacted) "
PERFORMER "Frankie Goes To Hollywood ."
ISRC GBAHW1200078
INDEX 01 00:00:00
TRACK 12 AUDIO
TITLE "Do You Think I'm Sexy? "
PERFORMER "Frankie Goes To Hollywood ."
ISRC GBAHW1200079
INDEX 00 23:37:73
FILE "12 Do You Think I'm Sexy.wav" WAVE
INDEX 01 00:00:00
TRACK 13 AUDIO
TITLE "Watching The Wildlife (Voiceless)"
PERFORMER "Frankie Goes To Hollywood ."
ISRC GBAHW1200080
INDEX 00 04:18:57
FILE "13 Watching The Wildlife (Voiceless).wav" WAVE
INDEX 01 00:00:00



Вернуться к началу
 Профиль Отправить личное сообщение  
 
   Похожие торренты   Автор   Торрент   Размер 
В этой теме нет новых непрочитанных сообщений. Frankie Goes To Hollywood - Relax [Maxi-Single] (1983) FLAC

romanR10

0 | 0

97.82 МБ

В этой теме нет новых непрочитанных сообщений. Soundgarden - Диcкография [Grunge/Alternative Rock 1988-2012] FLAC

Redscarf

0 | 1

2.26 ГБ

В этой теме нет новых непрочитанных сообщений. Danny Barnes - Stove Up (2017) FLAC

salma3

14 | 3

278.42 МБ

В этой теме нет новых непрочитанных сообщений. Frank Boeijen - Het Mooiste & Het Beste 2 [3CD+DVD] (2017) FLAC

salma3

9 | 5

1.16 ГБ

В этой теме нет новых непрочитанных сообщений. Bush - Black And White Rainbows (2017) FLAC

salma3

113 | 6

382.57 МБ

В этой теме нет новых непрочитанных сообщений. Yvonne Catterfeld - Guten Morgen Freiheit (2017) FLAC

salma3

0 | 0

265.96 МБ

В этой теме нет новых непрочитанных сообщений. CD - ASaMSPb - Мы - Лирика - 001 - (Монологи в Стихах) - 2015 - Live - Flac-Cue - lossless

antoroman

6 | 1

519.05 МБ


Начать новую тему Ответить на тему  [ 1 сообщение ] 




Для Мосгорсуда, Роскомнадзора и рекламодателей:: mosgorsud-torrent[собачка]yandex.ru
cron