Торрент файл
скачать торрент магнет ссылка Добавлен: 07 июл 2018, 11:05
Размер: 9.03 ГБ
Сидеров: 0
Личеров: 0
Автор

СообщениеДобавлено: 07 июл 2018, 11:05 

Не в сети
Супермодератор
Аватара пользователя
Дата регистрации:
15 фев 2012, 16:44
Возраст: 28
Спасибо: 7223 / 2147
Сообщения: 67724
Телекомпания: Россия 1 HD
Жанр: Спорт

Комментатор: Владимир Стогниенко

Описание: 06 июля 2018 года, пятница. 21:00 МСК
21-й Чемпионат Мира по футболу 2018 года. Плей-офф.
1/4 Финала. Бразилия — Бельгия
Стадион: Казань Арена (Казань, Россия), 42873 зрителя (94 % при вместимости 45379)
Главный судья: Милорад Мажич (Сербия)
Ассистенты: Милован Ристич (Сербия), Далибор Джурджевич (Сербия)
Резервный: Джейр Марруфо (США)

Релиз от: Striker

Продолжительность: 01:52:26
Качество видео: HDTV
Язык озвучки: Русский
Субтитры: отсутствуют

Видео: AVC/H.264, 1920x1080 (16:9), ~10,7 Мbps
Аудио: MP2, 2 ch, 48 kHz, 192 Kbps
Код:
Общее
Идентификатор                            : 1 (0x1)
Полное имя                               : C:\Users\ADMIN\Downloads\Video\2018 FIFA World Cup\World.Cup.2018.Quarter-final.Brazil-Belgium.HDTV.1080i.ts
Формат                                   : MPEG-TS
Размер файла                             : 9,03 Гбайт
Продолжительность                        : 1 ч. 52 м.
Режим общего битрейта                    : Переменный
Общий поток                              : 11,5 Мбит/сек

Видео
Идентификатор                            : 206 (0xCE)
Идентификатор меню                       : 20106 (0x4E8A)
Формат                                   : AVC
Формат/Информация                        : Advanced Video Codec
Профиль формата                          : [email protected]
Настройки формата                        : CABAC / 4 Ref Frames
Параметр CABAC формата                   : Да
Параметр RefFrames формата               : 4 кадра
Идентификатор кодека                     : 27
Продолжительность                        : 1 ч. 52 м.
Битрейт                                  : 10,7 Мбит/сек
Ширина                                   : 1920 пикселей
Высота                                   : 1080 пикселей
Соотношение сторон                       : 16:9
Частота кадров                           : 25,000 кадров/сек
Стандарт вещания                         : Component
Цветовое пространство                    : YUV
Субдискретизация насыщенности            : 4:2:0
Битовая глубина                          : 8 бит
Тип развёртки                            : Чересстрочная
Метод сохранения типа развёртки          : Раздельные поля
Порядок развёртки                        : Верхнее поле первое
Бит/(Пиксели*Кадры)                      : 0.207
Размер потока                            : 8,43 Гбайт (93%)
Цветовой диапазон                        : Limited
Основные цвета                           : BT.709
Характеристики трансфера                 : BT.709
Коэффициенты матрицы                     : BT.709

Аудио
Идентификатор                            : 306 (0x132)
Идентификатор меню                       : 20106 (0x4E8A)
Формат                                   : MPEG Audio
Версия формата                           : Version 1
Профиль формата                          : Layer 2
Идентификатор кодека                     : 3
Продолжительность                        : 1 ч. 52 м.
Вид битрейта                             : Постоянный
Битрейт                                  : 192 Кбит/сек
Каналы                                   : 2 канала
Частота                                  : 48,0 КГц
Частота кадров                           : 41,667 кадра/сек (1152 SPF)
Метод сжатия                             : С потерями
Задержка видео                           : -40 мс.
Размер потока                            : 154 Мбайт (2%)
Язык                                     : Russian

Скриншоты:



_________________
Проголосуй за трекер Открытый торрент трекер - RUS-MEDIA.ORG

Проголосуй Открытый торрент трекер - RUS-MEDIA.ORG


Вернуться к началу
 Профиль Отправить личное сообщение  
 
   Похожие торренты   Автор   Торрент   Размер 
В этой теме нет новых непрочитанных сообщений. Футбол. Чемпионат мира 2018. 1/2 финала. Франция - Бельгия [эфир от 10.07] (2018) HDTV 1080i

salma3

0 | 0

9.24 ГБ

В этой теме нет новых непрочитанных сообщений. Футбол. Чемпионат Мира 2018. 1/4 Финала. Бразилия — Бельгия (06.07.2018) HDTVRip [H.264/720p-LQ] [hand made 50fps]

salma3

0 | 0

3.34 ГБ

В этой теме нет новых непрочитанных сообщений. Чемпионат Мира 2018. 1/8 финала. Бельгия - Япония (02.07.2018) HDTV [H.264/1080i-LQ]

salma3

0 | 0

9.77 ГБ

В этой теме нет новых непрочитанных сообщений. Чемпионат Мира 2018. 1/8 финала. Бразилия - Мексика (02.07.2018) HDTV [H.264/1080i-LQ]

salma3

0 | 0

8.77 ГБ

В этой теме нет новых непрочитанных сообщений. Футбол. Чемпионат мира 2018. Матч за 3-е место. Бельгия - Англия [эфир от 14.07] (2018) HDTV 1080i

salma3

0 | 0

9.09 ГБ

В этой теме нет новых непрочитанных сообщений. Футбол. Чемпионат мира 2018. Группа Е. 2-й тур. Бразилия - Коста Рика [эфир от 22.06] (2018) HDTV 1080i

salma3

0 | 0

9.36 ГБ

В этой теме нет новых непрочитанных сообщений. Футбол. Чемпионат Мира 2018. 1/4 Финала. Уругвай — Франция (06.07.2018) HDTV [H.264/1080i-LQ]

salma3

0 | 0

9.68 ГБ


Начать новую тему Ответить на тему  [ 1 сообщение ] 




Для Мосгорсуда, Роскомнадзора и рекламодателей:: mosgorsud-torrent[собачка]yandex.ru
cron