Торрент файл
скачать торрент магнет ссылка Добавлен: 18 май 2017, 20:52
Размер: 254.92 ГБ
Сидеров: 20
Личеров: 7
Автор

СообщениеДобавлено: 18 май 2017, 20:52 

Не в сети
Супермодератор
Аватара пользователя
Дата регистрации:
15 фев 2012, 16:44
Возраст: 28
Спасибо: 7203 / 2147
Сообщения: 64881
Piper Perri (141 роликов) MegaPack [ Teen,Lesbian,POV,Petite,Small Tits,Blondes] 1080p

Имя актрисы: Piper Perri
Псевдонимы актрисы: Piper Perry
Охваченный временной промежуток: 2014-2017
Жанр: [All Sex,Teen,Lesbian,POV,Handjob, Blowjob, Footjob,Hardcore, Creampie,Petite,Small Tits,Blondes]

Тип ПАКа: В ПАКе больше 50 роликов (MegaPack)
Количество роликов: 141

Описание: Пайпер Перри
Актриса в жанре: для взрослых
Родилась: Гаррисберг, Пенсильвания, США
Дата рождения: 5 июня 1995 года (21 год)
Рост: 149см / 4.11 фунта
Вес: 37
Размер груди: 2
Волосы: крашеные,блондинка
Цвет глаз: карий

Instagram: http://www.instagram.com/piper_perri/
Twitter: http://twitter.com/PerriPiper
Скриншоты ко всем роликам
[clips4sale.com]Piper Perri BJ Challenge-HD.wmv.jpg | | 0,242 Mb | 1280x720
[HotAndMean] Kharlie Stone, Piper Perri (Stepsisters Share A Bed - 17.10.2016) rq (1080p).mp4.jpg | | 3,542 Mb | 1920x1080
[NewSensations] Piper Perri - Tiny Titty Babysitters 1080p.mp4.jpg | | 2,492 Mb | 1920x1080
[Nubiles-Porn] Bounty Hunters Piper Perri (18.07.2016) rq (540p).mp4.jpg | | 0,751 Mb | 960x540
[Nubiles-Porn] Piper Perri - Slutty School Girl (05.08.2016) rq.mp4.jpg | | 0,394 Mb | 960x540
2 Piper Perri.mp4.jpg | | 1,364 Mb | 1920x1080
159_piper_perri_full-hd_1080p.mp4.jpg | | 2,368 Mb | 2048x1080
2016_09_26 [RAW] Piper Perri - Bike Accident [720p].mp4.jpg | | 1,112 Mb | 1280x720
29381_01_1080p.mp4.jpg | | 1,677 Mb | 1920x1080
30804_01_1080p.mp4.jpg | | 1,586 Mb | 1920x1080
31143_01_1080p.mp4.jpg | | 1,452 Mb | 1920x1080
48367_02_big.mp4.jpg | | 0,648 Mb | 720x400
48718_01_1080.mp4.jpg | | 1,802 Mb | 1920x1080
48720_01_1080.mp4.jpg | | 2,223 Mb | 1920x1080
101409-1080p.mp4.jpg | | 1,316 Mb | 1920x1080
agm.16.12.12.ashley.adams.and.piper.perri.size.matters.mp4.jpg | | 1,839 Mb | 1920x1080
Alex Grey, Jenna J Ross And Piper Perri - Three Ways To Paradise.mp4.jpg | | 1,368 Mb | 1920x1080
allfinegirls.16.10.07.piper.perry.apolonia.and.ally.no.talking.here.mp4.jpg | | 0,740 Mb | 1920x1080
Apolonia_PiperPerry_DoubleSandwichRED_1920x1080_30fps.mp4.jpg | | 1,342 Mb | 1920x1080
ATKGirlfriends-Piper.Perri.Bangkok.2-6.1080p.mp4.jpg | | 1,646 Mb | 1920x1080
ATKGirlfriends-Piper.Perri.Bangkok.4-6.1080p.mp4.jpg | | 1,706 Mb | 1920x1080
ATKGirlfriends-Piper.Perri.Bangkok.5-6.1080p.mp4.jpg | | 2,950 Mb | 1920x1080
ATKGirlfriends-Piper.Perri.Bangkok.6-6.1080p.mp4.jpg | | 2,308 Mb | 1920x1080
ATKGirlfriends-Piper.Perri.Hawaii-4-7..1080p.mp4.jpg | | 2,168 Mb | 1920x1080
ATKGirlfriends-Piper.Perri.HJ.BJ.FJ.#3.1080p.mp4.jpg | | 1,314 Mb | 1920x1080
ATKGirlfriends-Piper.Perri.Malaysia.1-5.1080p.mp4.jpg | | 3,423 Mb | 1920x1080
ATKGirlfriends-Piper.Perri.Malaysia.3-5.1080p.mp4.jpg | | 1,9 Mb | 1920x1080
ATKGirlfriends-Piper.Perri.Singapore.#1.6-6.1080p.mp4.jpg | | 1,590 Mb | 1920x1080
ATKGirlfriends-Piper.Perri.Singapore.#2.1-2.1080p.mp4.jpg | | 3,227 Mb | 1920x1080
ATKGirlfriends-Piper.Perri.Singapore.2-6.1080p.mp4.jpg | | 1,593 Mb | 1920x1080
ATKGirlfriends-Piper.Perri.Singapore.4-6.#1.1080p.mp4.jpg | | 1,898 Mb | 1920x1080
babes_elsa_piper_fc011317_1080p_6000.mp4.jpg | | 1,374 Mb | 1920x1080
bbc13846-1080p.mp4.jpg | | 0,922 Mb | 1920x1080
bbe14320-1080p.mp4.jpg | | 0,942 Mb | 1920x1080
blacksonblondes.17.01.31.piper.perri.mp4.jpg | | 2,277 Mb | 1920x1080
BlacksOnBlondes_bts_piper_perri_720p_med.mp4.jpg | | 0,101 Mb | 768x432
Casey Calvert And Piper Perri 720.mp4.jpg | | 2,932 Mb | 1280x720
Colette.15.10.09.Piper.Perri.Orgy.Is.The.New.Black.XXX.1080p.mp4.jpg | | 1,275 Mb | 1920x1088
colette_jenna_lily_ivy_piper_perri_anny_aurora_lick_my_pussy_play_with_my_ass_1080.mp4.jpg | | 0,970 Mb | 1920x1080
colette_piper_hope_michael_alex_jake_will_work_for_sex_1080.mp4.jpg | | 1,454 Mb | 1920x1080
colette_piper_perri_alex_jones_suckle_my_honey_1080.mp4.jpg | | 0,793 Mb | 1920x1088
CumeatingCuckolds - Piper Perri_1425_wife_time_1080p.mp4.jpg | | 1,034 Mb | 1920x1080
Digital_Playground_ge_38801_Prom_Date_1080p_6000.mp4.jpg | | 1,406 Mb | 1920x1080
exxxtrasmall_piper_perri_fullhd.mp4.jpg | | 2.001 Mb | 1920x1080
ffd.15.10.09.piper.perri.hardcore.mp4.jpg | | 1,019 Mb | 1920x1080
ham_alison_piper_vl022916_1080p_12000.mp4.jpg | | 3,076 Mb | 1920x1080
ham_phoenix_piper_tt060315_1080p_12000.mp4.jpg | | 5,101 Mb | 1920x1080
hardx.15.06.05.piper.perri.youre.only.little.once.mp4.jpg | | 1,603 Mb | 1920x1080
hardx.15.06.26.piper.perri.tiny.blonde.goes.black.mp4.jpg | | 1,616 Mb | 1920x1080
Hope Harper and Piper Perri - Two Tiny Teen Spinners 1080.mp4.jpg | | 2,798 Mb | 1920x1080
iktg_piper_perri_dk040116_1080p_12000.mp4.jpg | | 2,854 Mb | 1920x1080
iktg_piper_perri_jl111014_1080p_12000.mp4.jpg | | 3,842 Mb | 1920x1080
iktg_piper_perri_kd032815_1080p_12000.mp4.jpg | | 4,4 Mb | 1920x1080
InterracialPickups__2015_08_01_Piper_Perri_720p.mp4.jpg | | 0,916 Mb | 1200x720
InTheVip.15.10.27.The.Booty.Bunch.XXX.1080p.mp4.jpg | | 4,101 Mb | 1920x1080
ip.15.08.01.piper.perri.mp4.jpg | | 2,032 Mb | 1920x1080
joymii_piper_perri_stairway_to_heaven_1080p.mp4.jpg | | 1,515 Mb | 1920x1080
Lily Rader and Piper Perri - Spring Break Pool Party 1080.mp4.jpg | | 3,095 Mb | 1920x1080
lubed.16.04.29.piper.perri.and.elsa.jean.wet.and.wild.besties.mp4.jpg | | 5,277 Mb | 1920x1012
lubed.17.03.07.piper.perri.hot.tub.fuck.machine.mp4.jpg | | 1,413 Mb | 1920x1080
mc13950-1080p.mp4.jpg | | 1,220 Mb | 1920x1080
mc14364-1080p.mp4.jpg | | 0,787 Mb | 1920x1080
MDFN_Piper.mp4.jpg | | 0,478 Mb | 854x480
momknowsbest.16.10.28.krissy.lynn.and.piper.perri.trick.or.twat.mp4.jpg | | 1,712 Mb | 1920x1080
momsbangteens.16.11.26.piper.perri.and.cory.chase.piping.piper.mp4.jpg | | 2,817 Mb | 1920x1080
mpov.15.06.17.piper.perri.mp4.jpg | | 2,629 Mb | 1920x1080
mshfpiperjmac_1080.mp4.jpg | | 2,231 Mb | 1920x1080
newsensations.17.04.12.piper.perri.mp4.jpg | | 1,910 Mb | 1920x1080
nopiperjax_1080.mp4.jpg | | 1,949 Mb | 1920x1080
nubc.15.10.08.piper.perri.cast.adria.rae.mp4.jpg | | 3,393 Mb | 1920x1080
NubileFilms.16.01.08.Piper.Perri.Signs.Of.Attraction.ge.1080.mp4.jpg | | 1,044 Mb | 1920x1080
Nubiles-Porn.15.09.02.Piper.Perri.And.Skye.West.Dance.Partners.ge.1080.mp4.jpg | | 1,260 Mb | 1920x1080
Nubiles-Porn.15.09.22.Aidra.Rae.Hope.Harper.And.Piper.Perri.Prima.Ballerinas.XXX.1080p.mp4.jpg | | 1,837 Mb | 1920x1080
Nubiles-Porn.15.09.25.Piper.Perri.School.Girl.Flogging.mp4.jpg | | 1,112 Mb | 1920x1080
Nubiles-Porn.15.12.20.ge.1080.mp4.jpg | | 3,146 Mb | 1920x1080
Nubiles-Porn.16.03.05.Piper.Perri.Experience.ge.1080.mp4.jpg | | 0,749 Mb | 1920x1080
nubp.15.10.09.maddy.rose.and.piper.perri.step.sisters.mp4.jpg | | 2,764 Mb | 1920x1080
OnlyTeenBlowJobs.15.08.13.piper.perri.ge.1080.mp4.jpg | | 1,120 Mb | 1920x1080
otbj.12.03.15.piper.perri_1080p.mp4.jpg | | 0,801 Mb | 1920x1080
passion-hd.16.09.06.piper.perri.stepsister.home.from.college.mp4.jpg | | 2,131 Mb | 1920x1080
passion-hd.16.12.21.piper.perri.xmas.cheer.mp4.jpg | | 0,931 Mb | 1920x1080
passion-hd.17.01.21.piper.perri.fucking.my.tutor.mp4.jpg | | 0,754 Mb | 1920x1080
PetiteHDPorn.15.11.12.Piper.Perri.Sky.Spirits.XXX.1080p.mp4.jpg | | 1,281 Mb | 1920x1080
petitehdporn_ballerina_beauties_1920.mp4.jpg | | 1,527 Mb | 1920x1080
petitehdporn_sexy_moves_1920.mp4.jpg | | 1,313 Mb | 1920x1080
Piper Perri - Bound and Waiting 1080.mp4.jpg | | 1,381 Mb | 1920x1080
Piper Perri - College Sex Tapes 1080.mp4.jpg | | 0,929 Mb | 1920x1080
Piper Perri - Cute Teen Takes a Thick Dick.mp4.jpg | | 3,151 Mb | 1920x1080
Piper Perri - Emergency BJ Scene 1080.mp4.jpg | | 0,923 Mb | 1920x1080
Piper Perri - Kiss Me Im Irish 1080.mp4.jpg | | 1,499 Mb | 1920x1080
Piper Perri - Piper Lets Her Hair Down 1080.mp4.jpg | | 0,967 Mb | 1920x1080
Piper Perri - Piping Piper 1080.mp4.jpg | | 2,493 Mb | 1920x1080
Piper Perri - Super Gurl Weakened, Beaten and Broken 720p.mp4.jpg | | 0,610 Mb | 1280x720
Piper Perri - Watersports 22-02-2016 1080.mp4.jpg | | 0,103 Mb | 1920x1080
Piper Perri - Young Piper Fucks An Older Guy 1080p.mp4.jpg | | 1,225 Mb | 1920x1080
PIPER PERRI 11.11.2016.mp4.jpg | | 2,911 Mb | 1920x1080
PIPER PERRI 27.09.2016.mp4.jpg | | 2,844 Mb | 1920x1080
PIPER PERRI 27.10.2016.mp4.jpg | | 2,397 Mb | 1920x1080
Piper Perri And Alison Tyler - Teach Me Please Me 1080.mp4.jpg | | 1,967 Mb | 1920x1080
Piper Perri And Bentley - White Room Threesome.mp4.jpg | | 3,450 Mb | 1920x1080
Piper Perri and Rebel Lynn - Petite Fantasy 1080.mp4.jpg | | 1,016 Mb | 1920x1080
Piper Perri And Veronica Vain - At The Car Wash 1080.mp4.jpg | | 3,051 Mb | 1920x1080
Piper Perri ATKGF 1080.mp4.jpg | | 1,258 Mb | 1920x1080
Piper Perri BC 1080.mp4.jpg | | 1,452 Mb | 1920x1080
Piper Perri, Chanell Heart & Jayden Starr_1080.mp4.jpg | | 2,172 Mb | 1920x1080
Piper Perri, Holly Hendrix (11.02.16).mp4.jpg | | 0,943 Mb | 1920x1080
Piper_1080.mp4.jpg | | 2,006 Mb | 1920x1080
piper_perri_720p_big.mp4.jpg | | 1,083 Mb | 1280x720
piper_perri_1080_6000.mp4.jpg | | 1,642 Mb | 1920x1080
Piper_Perry_Hot_Companion_HD1080.mp4.jpg | | 1,842 Mb | 1920x1080
piper_puss_big-1080.mp4.jpg | | 2,855 Mb | 1920x1080
PiperPerri_bg-1080dld.mp4.jpg | | 1,818 Mb | 1920x1080
PiperPerry_BlackAndWhite_1920x1080_30fps.mp4.jpg | | 1,083 Mb | 1920x1080
prdi.16.05.11.piper.perri.daddy.loves.panties.mp4.jpg | | 1,455 Mb | 1920x1080
prdi.16.08.03.jessa.rhodes.and.piper.perri.good.little.girl.part.five.mp4.jpg | | 1,761 Mb | 1920x1080
shesnew_piper_perri_1080p.mp4.jpg | | 1,861 Mb | 1920x1080
SpyFam - Bella Rose And Piper Perri - 17.04.03.mp4.jpg | | 1,094 Mb | 1920x1080
swsn.15.08.07.piper.perry.mp4.jpg | | 0,713 Mb | 1920x1080
TeensLoveBlackCocks.15.09.25.Piper.Perri.XXX.1080p.mp4.jpg | | 2,280 Mb | 1920x1080
teenslovehugecocks.16.10.15.piper.perri.hit.it.again.mp4.jpg | | 2,628 Mb | 1920x1080
thbp.15.09.01.piper.perri.mp4.jpg | | 0,950 Mb | 1920x1080
tlib.16.06.01.alaina.dawson.elsa.jean.and.piper.perri.teen.honey.trap.mp4.jpg | | 3,405 Mb | 1920x1080
tlib_piper_perri_bb062615_1080p_12000.mp4.jpg | | 4,499 Mb | 1920x1080
tlib_piper_perri_bb121615_1080p_12000.mp4.jpg | | 3,246 Mb | 1920x1080
tlib_piper_perri_kl020915_1080p_12000.mp4.jpg | | 2,760 Mb | 1920x1080
tlib_piper_perri_kl030716_1080p_12000.mp4.jpg | | 3,060 Mb | 1920x1080
tp.15.03.09.piper.perri.mp4.jpg | | 2,084 Mb | 1920x1080
tuf.15.10.23.phoenix.marie.and.piper.perri.mp4.jpg | | 3,123 Mb | 1920x1080
WatchingMyDaughterGoBlack.15.10.08.Piper.Perri.XXX.1080p.mp4.jpg | | 2,457 Mb | 1920x1080
webyoung.15.09.04.piper.perri.and.alexa.grace.my.sexy.instructor.part.one.mp4.jpg | | 1,814 Mb | 1920x1080
webyoung.15.09.18.hollie.mack.and.piper.perri.seduced.by.my.new.sister.mp4.jpg | | 1,892 Mb | 1920x1080
webyoung.15.10.09.piper.perri.and.alexa.grace.my.sexy.instructor.part.two.mp4.jpg | | 1,284 Mb | 1920x1080
webyoung.15.10.30.jenna.sativa.and.piper.perri.yoga.girlfriends.mp4.jpg | | 1,540 Mb | 1920x1080
wg_piper_perry_talia_mint_pussy_investigation_1080p.mp4.jpg | | 0,452 Mb | 1920x1080
wmmgb.16.02.28.alura.jenson.and.piper.perri.mp4.jpg | | 2,117 Mb | 1920x1080
wowg.16.07.31.piper.perry.seek.and.you.will.find.mp4.jpg | | 1,170 Mb | 1920x1080
WowGirls-Piper.Perry.&.Talia.Mint.4k.mp4.jpg | | 2,577 Mb | 4096x2160
wy.16.02.19.carter.cruise.and.piper.perri.sister.sitting.part.two.mp4.jpg | | 1,405 Mb | 1920x1080
wy.16.03.18.piper.perri.and.bailey.brooke.rival.cheerleaders.part.two.mp4.jpg | | 1,127 Mb | 1920x1080
xart.15.11.01.naomi.woods.and.piper.perri.the.cabin.and.my.wood.mp4.jpg | | 1,197 Mb | 1920x1080
X-Art.15.11.20.Piper.Perri.Tiny.Seductress.ge.1080.mp4.jpg | | 0,638 Mb | 1920x1080
Тех.данные ко всем роликам
Общее
Полное имя : D:\WWW\Piper Perri\101409-1080p.mp4
Формат : MPEG-4
Профиль формата : Base Media / Version 2
Идентификатор кодека : mp42 (isom)
Размер файла : 1,29 Гбайт
Продолжительность : 29 м.
Режим общего битрейта : Переменный
Общий поток : 6182 Кбит/сек
Дата кодирования : UTC 2015-07-01 11:32:45
Дата пометки : UTC 2015-07-01 11:32:45

Видео
Идентификатор : 1
Формат : AVC
Формат/Информация : Advanced Video Codec
Профиль формата : [email protected]
Параметр CABAC формата : Да
Параметр ReFrames формата : 4 кадра
Идентификатор кодека : avc1
Идентификатор кодека/Информация : Advanced Video Coding
Продолжительность : 29 м.
Битрейт : 5987 Кбит/сек
Ширина : 1920 пикселей
Высота : 1080 пикселей
Соотношение сторон : 16:9
Режим частоты кадров : Постоянный
Частота кадров : 30,000 кадров/сек
Цветовое пространство : YUV
Субдискретизация насыщенности : 4:2:0
Битовая глубина : 8 бит
Тип развёртки : Прогрессивная
Бит/(Пиксели*Кадры) : 0.096
Размер потока : 1,24 Гбайт (97%)
Язык : English
Дата кодирования : UTC 2015-07-01 11:32:45
Дата пометки : UTC 2015-07-01 11:32:45
Цветовой диапазон : Limited
Основные цвета : BT.709
Характеристики трансфера : BT.709
Коэффициенты матрицы : BT.709

Аудио
Идентификатор : 2
Формат : AAC
Формат/Информация : Advanced Audio Codec
Профиль формата : LC
Идентификатор кодека : 40
Продолжительность : 29 м.
Вид битрейта : Переменный
Битрейт : 192 Кбит/сек
Максимальный битрейт : 388 Кбит/сек
Каналы : 2 канала
Расположение каналов : Front: L R
Частота : 48,0 КГц
Частота кадров : 46,875 кадров/сек (1024 spf)
Метод сжатия : С потерями
Размер потока : 40,3 Мбайт (3%)
Язык : English
Дата кодирования : UTC 2015-07-01 11:32:45
Дата пометки : UTC 2015-07-01 11:32:45

Общее
Полное имя : D:\WWW\Piper Perri\159_piper_perri_full-hd_1080p.mp4
Формат : MPEG-4
Профиль формата : Base Media / Version 2
Идентификатор кодека : mp42 (isom/mp41/avc1)
Размер файла : 2,31 Гбайт
Продолжительность : 37 м.
Режим общего битрейта : Переменный
Общий поток : 8884 Кбит/сек
Дата кодирования : UTC 2014-12-27 22:00:53
Дата пометки : UTC 2014-12-27 22:00:53
Библиотека кодирования : Apple QuickTime

Видео
Идентификатор : 1
Формат : AVC
Формат/Информация : Advanced Video Codec
Профиль формата : [email protected]
Параметр CABAC формата : Нет
Параметр ReFrames формата : 2 кадра
Идентификатор кодека : avc1
Идентификатор кодека/Информация : Advanced Video Coding
Продолжительность : 37 м.
Продолжительность оригинала : 37 м.
Битрейт : 8721 Кбит/сек
Ширина : 2048 пикселей
Высота : 1080 пикселей
Соотношение сторон : 1,896
Режим частоты кадров : Постоянный
Частота кадров : 23,976 (23976/1000) кадра/сек
Частота кадров в оригинале : 23,976 (24000/1001) кадра/сек
Стандарт вещания : NTSC
Цветовое пространство : YUV
Субдискретизация насыщенности : 4:2:0
Битовая глубина : 8 бит
Тип развёртки : Прогрессивная
Бит/(Пиксели*Кадры) : 0.164
Размер потока : 2,27 Гбайт (98%)
Размер потока оригинала : 2,27 Гбайт (98%)
Язык : English
Дата кодирования : UTC 2014-12-27 22:00:53
Дата пометки : UTC 2014-12-27 22:00:53
Цветовой диапазон : Limited
mdhd_Duration : 2235942

Аудио
Идентификатор : 2
Формат : AAC
Формат/Информация : Advanced Audio Codec
Профиль формата : LC
Идентификатор кодека : 40
Продолжительность : 37 м.
Вид битрейта : Переменный
Битрейт : 160 Кбит/сек
Максимальный битрейт : 168 Кбит/сек
Каналы : 2 канала
Расположение каналов : Front: L R
Частота : 48,0 КГц
Частота кадров : 46,875 кадров/сек (1024 spf)
Метод сжатия : С потерями
Размер потока : 42,6 Мбайт (2%)
Язык : English
Дата кодирования : UTC 2014-12-27 22:00:53
Дата пометки : UTC 2014-12-27 22:00:53

Прочее #1
Идентификатор : 3
Тип : Object description
Формат : System Core
Идентификатор кодека : 2
Продолжительность : 37 м.
Язык : English
Дата кодирования : UTC 2014-12-27 22:00:53
Дата пометки : UTC 2014-12-27 22:00:53
mdhd_Duration : 1000

Прочее #2
Идентификатор : 4
Тип : Scene description
Формат : System Core
Идентификатор кодека : 2
Продолжительность : 37 м.
Язык : English
Дата кодирования : UTC 2014-12-27 22:00:53
Дата пометки : UTC 2014-12-27 22:00:53
mdhd_Duration : 1000

Общее
Полное имя : D:\WWW\Piper Perri\2 Piper Perri.mp4
Формат : MPEG-4
Профиль формата : Base Media
Идентификатор кодека : isom (isom/iso2/avc1/mp41)
Размер файла : 1,33 Гбайт
Продолжительность : 27 м.
Общий поток : 6995 Кбит/сек
Программа кодирования : Lavf56.40.101

Видео
Идентификатор : 1
Формат : AVC
Формат/Информация : Advanced Video Codec
Профиль формата : [email protected]
Параметр CABAC формата : Да
Параметр ReFrames формата : 4 кадра
Идентификатор кодека : avc1
Идентификатор кодека/Информация : Advanced Video Coding
Продолжительность : 27 м.
Битрейт : 6800 Кбит/сек
Ширина : 1920 пикселей
Высота : 1080 пикселей
Соотношение сторон : 16:9
Режим частоты кадров : Постоянный
Частота кадров : 29,970 (29970/1000) кадров/сек
Цветовое пространство : YUV
Субдискретизация насыщенности : 4:2:0
Битовая глубина : 8 бит
Тип развёртки : Прогрессивная
Бит/(Пиксели*Кадры) : 0.109
Размер потока : 1,29 Гбайт (97%)
Библиотека кодирования : x264 core 148
Настройки программы : cabac=1 / ref=3 / deblock=1:0:0 / analyse=0x3:0x113 / me=umh / subme=7 / psy=1 / psy_rd=1.00:0.00 / mixed_ref=1 / me_range=16 / chroma_me=1 / trellis=1 / 8x8dct=1 / cqm=0 / deadzone=21,11 / fast_pskip=1 / chroma_qp_offset=-2 / threads=34 / lookahead_threads=5 / sliced_threads=0 / nr=0 / decimate=1 / interlaced=0 / bluray_compat=0 / constrained_intra=0 / bframes=3 / b_pyramid=2 / b_adapt=1 / b_bias=0 / direct=1 / weightb=1 / open_gop=0 / weightp=2 / keyint=250 / keyint_min=25 / scenecut=40 / intra_refresh=0 / rc_lookahead=40 / rc=abr / mbtree=1 / bitrate=6800 / ratetol=1.0 / qcomp=0.60 / qpmin=0 / qpmax=69 / qpstep=4 / ip_ratio=1.40 / aq=1:1.00

Аудио
Идентификатор : 2
Формат : AAC
Формат/Информация : Advanced Audio Codec
Профиль формата : LC
Идентификатор кодека : 40
Продолжительность : 27 м.
Duration_LastFrame : -21 мс.
Вид битрейта : Постоянный
Битрейт : 192 Кбит/сек
Каналы : 2 канала
Расположение каналов : Front: L R
Частота : 44,1 КГц
Частота кадров : 43,066 кадра/сек (1024 spf)
Метод сжатия : С потерями
Размер потока : 37,4 Мбайт (3%)
Язык : English
Default : Да
AlternateGroup/String : 1

Общее
Полное имя : D:\WWW\Piper Perri\2016_09_26 [RAW] Piper Perri - Bike Accident [720p].mp4
Формат : MPEG-4
Профиль формата : Base Media
Идентификатор кодека : isom (isom/iso2/avc1/mp41)
Размер файла : 1,09 Гбайт
Продолжительность : 37 м.
Общий поток : 4180 Кбит/сек
Программа кодирования : Lavf57.28.100

Видео
Идентификатор : 1
Формат : AVC
Формат/Информация : Advanced Video Codec
Профиль формата : [email protected]
Параметр CABAC формата : Да
Параметр ReFrames формата : 5 кадров
Идентификатор кодека : avc1
Идентификатор кодека/Информация : Advanced Video Coding
Продолжительность : 37 м.
Битрейт : 4000 Кбит/сек
Ширина : 1280 пикселей
Высота : 720 пикселей
Соотношение сторон : 16:9
Режим частоты кадров : Постоянный
Частота кадров : 23,976 (24000/1001) кадра/сек
Цветовое пространство : YUV
Субдискретизация насыщенности : 4:2:0
Битовая глубина : 8 бит
Тип развёртки : Прогрессивная
Бит/(Пиксели*Кадры) : 0.181
Размер потока : 1,03 Гбайт (95%)
Библиотека кодирования : x264 core 148 r2665 a01e339
Настройки программы : cabac=1 / ref=5 / deblock=1:0:0 / analyse=0x3:0x113 / me=umh / subme=8 / psy=1 / psy_rd=1.00:0.00 / mixed_ref=1 / me_range=16 / chroma_me=1 / trellis=1 / 8x8dct=1 / cqm=0 / deadzone=21,11 / fast_pskip=1 / chroma_qp_offset=-2 / threads=20 / lookahead_threads=3 / sliced_threads=0 / nr=0 / decimate=1 / interlaced=0 / bluray_compat=0 / constrained_intra=0 / bframes=3 / b_pyramid=2 / b_adapt=2 / b_bias=0 / direct=3 / weightb=1 / open_gop=0 / weightp=2 / keyint=60 / keyint_min=6 / scenecut=40 / intra_refresh=0 / rc_lookahead=50 / rc=abr / mbtree=1 / bitrate=4000 / ratetol=1.0 / qcomp=0.60 / qpmin=0 / qpmax=69 / qpstep=4 / ip_ratio=1.40 / aq=1:1.00
Дата пометки : UTC 2016-09-15 20:47:50

Аудио
Идентификатор : 2
Формат : AAC
Формат/Информация : Advanced Audio Codec
Профиль формата : LC
Идентификатор кодека : 40
Продолжительность : 37 м.
Продолжительность оригинала : 37 м.
Вид битрейта : Постоянный
Битрейт : 192 Кбит/сек
Каналы : 2 канала
Расположение каналов : Front: L R
Частота : 48,0 КГц
Частота кадров : 46,875 кадров/сек (1024 spf)
Метод сжатия : С потерями
Размер потока : 51,7 Мбайт (5%)
Размер потока оригинала : 51,7 Мбайт (5%)
Default : Да
AlternateGroup/String : 1
Дата пометки : UTC 2016-09-15 20:47:50

Прочее
Идентификатор : 3
Тип : Time code
Формат : QuickTime TC
Продолжительность : 37 м.
Временной код первого кадра : 00:00:00:00
Временной код, чередующийся : Да
Default : Нет
Дата пометки : UTC 2016-09-15 20:47:50

Общее
Полное имя : D:\WWW\Piper Perri\29381_01_1080p.mp4
Формат : MPEG-4
Профиль формата : Base Media
Идентификатор кодека : isom (isom/iso2/avc1/mp41)
Размер файла : 1,64 Гбайт
Продолжительность : 33 м.
Режим общего битрейта : Переменный
Общий поток : 6970 Кбит/сек
Дата кодирования : UTC 1970-01-01 00:00:00
Дата пометки : UTC 1970-01-01 00:00:00
Программа кодирования : Lavf52.93.0

Видео
Идентификатор : 1
Формат : AVC
Формат/Информация : Advanced Video Codec
Профиль формата : [email protected]
Параметр CABAC формата : Да
Параметр ReFrames формата : 4 кадра
Идентификатор кодека : avc1
Идентификатор кодека/Информация : Advanced Video Coding
Продолжительность : 33 м.
Битрейт : 6800 Кбит/сек
Ширина : 1920 пикселей
Высота : 1080 пикселей
Соотношение сторон : 16:9
Режим частоты кадров : Постоянный
Частота кадров : 29,970 (29970/1000) кадров/сек
Цветовое пространство : YUV
Субдискретизация насыщенности : 4:2:0
Битовая глубина : 8 бит
Тип развёртки : Прогрессивная
Бит/(Пиксели*Кадры) : 0.109
Размер потока : 1,60 Гбайт (98%)
Библиотека кодирования : x264 core 107
Настройки программы : cabac=1 / ref=3 / deblock=1:0:0 / analyse=0x3:0x113 / me=umh / subme=6 / psy=1 / psy_rd=1.00:0.00 / mixed_ref=1 / me_range=16 / chroma_me=1 / trellis=0 / 8x8dct=1 / cqm=0 / deadzone=21,11 / fast_pskip=1 / chroma_qp_offset=-2 / threads=1 / sliced_threads=0 / nr=0 / decimate=1 / interlaced=0 / constrained_intra=0 / bframes=2 / b_pyramid=2 / b_adapt=2 / b_bias=0 / direct=2 / weightb=1 / open_gop=0 / weightp=0 / keyint=30 / keyint_min=16 / scenecut=0 / intra_refresh=0 / rc_lookahead=30 / rc=abr / mbtree=1 / bitrate=6800 / ratetol=1.0 / qcomp=0.60 / qpmin=1 / qpmax=31 / qpstep=4 / ip_ratio=1.41 / aq=1:1.00
Дата кодирования : UTC 1970-01-01 00:00:00
Дата пометки : UTC 1970-01-01 00:00:00

Аудио
Идентификатор : 2
Формат : AAC
Формат/Информация : Advanced Audio Codec
Профиль формата : LC
Идентификатор кодека : 40
Продолжительность : 33 м.
Вид битрейта : Переменный
Битрейт : 152 Кбит/сек
Каналы : 2 канала
Расположение каналов : Front: L R
Частота : 44,1 КГц
Частота кадров : 43,066 кадра/сек (1024 spf)
Метод сжатия : С потерями
Размер потока : 36,6 Мбайт (2%)
Дата кодирования : UTC 1970-01-01 00:00:00
Дата пометки : UTC 1970-01-01 00:00:00

Общее
Полное имя : D:\WWW\Piper Perri\30804_01_1080p.mp4
Формат : MPEG-4
Профиль формата : Base Media
Идентификатор кодека : isom (isom/iso2/avc1/mp41)
Размер файла : 1,55 Гбайт
Продолжительность : 39 м.
Общий поток : 5595 Кбит/сек
Программа кодирования : Lavf56.40.101
Примечание : RARBG.COM - WebYoung.16.01.15.Carter.Cruise.And.Piper.Perri.Sister.Sitting.Part.One.XXX.1080p.MP4-KTR

Видео
Идентификатор : 1
Формат : AVC
Формат/Информация : Advanced Video Codec
Профиль формата : [email protected]
Параметр CABAC формата : Да
Параметр ReFrames формата : 4 кадра
Идентификатор кодека : avc1
Идентификатор кодека/Информация : Advanced Video Coding
Продолжительность : 39 м.
Битрейт : 5395 Кбит/сек
Ширина : 1920 пикселей
Высота : 1080 пикселей
Соотношение сторон : 16:9
Режим частоты кадров : Постоянный
Частота кадров : 29,970 (29970/1000) кадров/сек
Цветовое пространство : YUV
Субдискретизация насыщенности : 4:2:0
Битовая глубина : 8 бит
Тип развёртки : Прогрессивная
Бит/(Пиксели*Кадры) : 0.087
Размер потока : 1,49 Гбайт (96%)
Библиотека кодирования : x264 core 148
Настройки программы : cabac=1 / ref=3 / deblock=1:0:0 / analyse=0x3:0x113 / me=umh / subme=7 / psy=1 / psy_rd=1.00:0.00 / mixed_ref=1 / me_range=16 / chroma_me=1 / trellis=1 / 8x8dct=1 / cqm=0 / deadzone=21,11 / fast_pskip=1 / chroma_qp_offset=-2 / threads=34 / lookahead_threads=5 / sliced_threads=0 / nr=0 / decimate=1 / interlaced=0 / bluray_compat=0 / constrained_intra=0 / bframes=3 / b_pyramid=2 / b_adapt=1 / b_bias=0 / direct=1 / weightb=1 / open_gop=0 / weightp=2 / keyint=250 / keyint_min=25 / scenecut=40 / intra_refresh=0 / rc_lookahead=40 / rc=crf / mbtree=1 / crf=20.0 / qcomp=0.60 / qpmin=0 / qpmax=69 / qpstep=4 / ip_ratio=1.40 / aq=1:1.00

Аудио
Идентификатор : 2
Формат : AAC
Формат/Информация : Advanced Audio Codec
Профиль формата : LC
Идентификатор кодека : 40
Продолжительность : 39 м.
Duration_LastFrame : 26 мс.
Вид битрейта : Постоянный
Битрейт : 192 Кбит/сек
Каналы : 2 канала
Расположение каналов : Front: L R
Частота : 44,1 КГц
Частота кадров : 43,066 кадра/сек (1024 spf)
Метод сжатия : С потерями
Размер потока : 54,4 Мбайт (3%)
Язык : English
Default : Да
AlternateGroup/String : 1

Общее
Полное имя : D:\WWW\Piper Perri\31143_01_1080p.mp4
Формат : MPEG-4
Профиль формата : Base Media
Идентификатор кодека : isom (isom/iso2/avc1/mp41)
Размер файла : 1,42 Гбайт
Продолжительность : 29 м.
Общий поток : 6895 Кбит/сек
Программа кодирования : Lavf56.40.101
Примечание : RARBG.COM - WebYoung.16.02.26.Piper.Perri.And.Bailey.Brooke.Rival.Cheerleaders.Part.One.XXX.1080p.MP4-KTR

Видео
Идентификатор : 1
Формат : AVC
Формат/Информация : Advanced Video Codec
Профиль формата : [email protected]
Параметр CABAC формата : Да
Параметр ReFrames формата : 4 кадра
Идентификатор кодека : avc1
Идентификатор кодека/Информация : Advanced Video Coding
Продолжительность : 29 м.
Битрейт : 6800 Кбит/сек
Ширина : 1920 пикселей
Высота : 1080 пикселей
Соотношение сторон : 16:9
Режим частоты кадров : Постоянный
Частота кадров : 29,970 (29970/1000) кадров/сек
Цветовое пространство : YUV
Субдискретизация насыщенности : 4:2:0
Битовая глубина : 8 бит
Тип развёртки : Прогрессивная
Бит/(Пиксели*Кадры) : 0.109
Размер потока : 1,38 Гбайт (97%)
Библиотека кодирования : x264 core 148
Настройки программы : cabac=1 / ref=3 / deblock=1:0:0 / analyse=0x3:0x113 / me=umh / subme=7 / psy=1 / psy_rd=1.00:0.00 / mixed_ref=1 / me_range=16 / chroma_me=1 / trellis=1 / 8x8dct=1 / cqm=0 / deadzone=21,11 / fast_pskip=1 / chroma_qp_offset=-2 / threads=34 / lookahead_threads=5 / sliced_threads=0 / nr=0 / decimate=1 / interlaced=0 / bluray_compat=0 / constrained_intra=0 / bframes=3 / b_pyramid=2 / b_adapt=1 / b_bias=0 / direct=1 / weightb=1 / open_gop=0 / weightp=2 / keyint=250 / keyint_min=25 / scenecut=40 / intra_refresh=0 / rc_lookahead=40 / rc=abr / mbtree=1 / bitrate=6800 / ratetol=1.0 / qcomp=0.60 / qpmin=0 / qpmax=69 / qpstep=4 / ip_ratio=1.40 / aq=1:1.00

Аудио
Идентификатор : 2
Формат : AAC
Формат/Информация : Advanced Audio Codec
Профиль формата : LC
Идентификатор кодека : 40
Продолжительность : 29 м.
Duration_LastFrame : 38 мс.
Вид битрейта : Постоянный
Битрейт : 192 Кбит/сек
Каналы : 2 канала
Расположение каналов : Front: L R
Частота : 44,1 КГц
Частота кадров : 43,066 кадра/сек (1024 spf)
Метод сжатия : С потерями
Размер потока : 40,4 Мбайт (3%)
Язык : English
Default : Да
AlternateGroup/String : 1

Общее
Полное имя : D:\WWW\Piper Perri\48367_02_big.mp4
Формат : MPEG-4
Профиль формата : Base Media
Идентификатор кодека : isom (isom/iso2/avc1/mp41)
Размер файла : 649 Мбайт
Продолжительность : 1 ч. 7 м.
Общий поток : 1337 Кбит/сек
Программа кодирования : Lavf56.40.101

Видео
Идентификатор : 1
Формат : AVC
Формат/Информация : Advanced Video Codec
Профиль формата : [email protected]
Параметр CABAC формата : Да
Параметр ReFrames формата : 4 кадра
Идентификатор кодека : avc1
Идентификатор кодека/Информация : Advanced Video Coding
Продолжительность : 1 ч. 7 м.
Битрейт : 1200 Кбит/сек
Ширина : 720 пикселей
Высота : 400 пикселей
Соотношение сторон : 16:9
Режим частоты кадров : Постоянный
Частота кадров : 29,970 (29970/1000) кадров/сек
Цветовое пространство : YUV
Субдискретизация насыщенности : 4:2:0
Битовая глубина : 8 бит
Тип развёртки : Прогрессивная
Бит/(Пиксели*Кадры) : 0.139
Размер потока : 582 Мбайт (90%)
Библиотека кодирования : x264 core 148
Настройки программы : cabac=1 / ref=3 / deblock=1:0:0 / analyse=0x3:0x113 / me=umh / subme=7 / psy=1 / psy_rd=1.00:0.00 / mixed_ref=1 / me_range=16 / chroma_me=1 / trellis=1 / 8x8dct=1 / cqm=0 / deadzone=21,11 / fast_pskip=1 / chroma_qp_offset=-2 / threads=12 / lookahead_threads=2 / sliced_threads=0 / nr=0 / decimate=1 / interlaced=0 / bluray_compat=0 / constrained_intra=0 / bframes=3 / b_pyramid=2 / b_adapt=1 / b_bias=0 / direct=1 / weightb=1 / open_gop=0 / weightp=2 / keyint=250 / keyint_min=25 / scenecut=40 / intra_refresh=0 / rc_lookahead=40 / rc=abr / mbtree=1 / bitrate=1200 / ratetol=1.0 / qcomp=0.60 / qpmin=0 / qpmax=69 / qpstep=4 / ip_ratio=1.40 / aq=1:1.00

Аудио
Идентификатор : 2
Формат : AAC
Формат/Информация : Advanced Audio Codec
Профиль формата : LC
Идентификатор кодека : 40
Продолжительность : 1 ч. 7 м.
Duration_LastFrame : -2 мс.
Вид битрейта : Постоянный
Битрейт : 128 Кбит/сек
Каналы : 2 канала
Расположение каналов : Front: L R
Частота : 44,1 КГц
Частота кадров : 43,066 кадра/сек (1024 spf)
Метод сжатия : С потерями
Размер потока : 62,1 Мбайт (10%)
Default : Да
AlternateGroup/String : 1

Общее
Полное имя : D:\WWW\Piper Perri\48718_01_1080.mp4
Формат : MPEG-4
Профиль формата : Base Media
Идентификатор кодека : isom (isom/iso2/avc1/mp41)
Размер файла : 1,76 Гбайт
Продолжительность : 36 м.
Общий поток : 6904 Кбит/сек
Программа кодирования : Lavf56.40.101

Видео
Идентификатор : 1
Формат : AVC
Формат/Информация : Advanced Video Codec
Профиль формата : [email protected]
Параметр CABAC формата : Да
Параметр ReFrames формата : 4 кадра
Идентификатор кодека : avc1
Идентификатор кодека/Информация : Advanced Video Coding
Продолжительность : 36 м.
Битрейт : 6800 Кбит/сек
Ширина : 1920 пикселей
Высота : 1080 пикселей
Соотношение сторон : 16:9
Режим частоты кадров : Постоянный
Частота кадров : 29,970 (29970/1000) кадров/сек
Цветовое пространство : YUV
Субдискретизация насыщенности : 4:2:0
Битовая глубина : 8 бит
Тип развёртки : Прогрессивная
Бит/(Пиксели*Кадры) : 0.109
Размер потока : 1,71 Гбайт (97%)
Библиотека кодирования : x264 core 148
Настройки программы : cabac=1 / ref=3 / deblock=1:0:0 / analyse=0x3:0x113 / me=umh / subme=7 / psy=1 / psy_rd=1.00:0.00 / mixed_ref=1 / me_range=16 / chroma_me=1 / trellis=1 / 8x8dct=1 / cqm=0 / deadzone=21,11 / fast_pskip=1 / chroma_qp_offset=-2 / threads=34 / lookahead_threads=5 / sliced_threads=0 / nr=0 / decimate=1 / interlaced=0 / bluray_compat=0 / constrained_intra=0 / bframes=3 / b_pyramid=2 / b_adapt=1 / b_bias=0 / direct=1 / weightb=1 / open_gop=0 / weightp=2 / keyint=250 / keyint_min=25 / scenecut=40 / intra_refresh=0 / rc_lookahead=40 / rc=abr / mbtree=1 / bitrate=6800 / ratetol=1.0 / qcomp=0.60 / qpmin=0 / qpmax=69 / qpstep=4 / ip_ratio=1.40 / aq=1:1.00

Аудио
Идентификатор : 2
Формат : AAC
Формат/Информация : Advanced Audio Codec
Профиль формата : LC
Идентификатор кодека : 40
Продолжительность : 36 м.
Duration_LastFrame : -20 мс.
Вид битрейта : Постоянный
Битрейт : 192 Кбит/сек
Каналы : 2 канала
Расположение каналов : Front: L R
Частота : 44,1 КГц
Частота кадров : 43,066 кадра/сек (1024 spf)
Метод сжатия : С потерями
Размер потока : 50,1 Мбайт (3%)
Язык : English
Default : Да
AlternateGroup/String : 1

Общее
Полное имя : D:\WWW\Piper Perri\48720_01_1080.mp4
Формат : MPEG-4
Профиль формата : Base Media
Идентификатор кодека : isom (isom/iso2/avc1/mp41)
Размер файла : 1,98 Гбайт
Продолжительность : 40 м.
Общий поток : 6913 Кбит/сек
Программа кодирования : Lavf56.40.101

Видео
Идентификатор : 1
Формат : AVC
Формат/Информация : Advanced Video Codec
Профиль формата : [email protected]
Параметр CABAC формата : Да
Параметр ReFrames формата : 4 кадра
Идентификатор кодека : avc1
Идентификатор кодека/Информация : Advanced Video Coding
Продолжительность : 40 м.
Битрейт : 6800 Кбит/сек
Ширина : 1920 пикселей
Высота : 1080 пикселей
Соотношение сторон : 16:9
Режим частоты кадров : Постоянный
Частота кадров : 29,970 (29970/1000) кадров/сек
Цветовое пространство : YUV
Субдискретизация насыщенности : 4:2:0
Битовая глубина : 8 бит
Тип развёртки : Прогрессивная
Бит/(Пиксели*Кадры) : 0.109
Размер потока : 1,92 Гбайт (97%)
Библиотека кодирования : x264 core 148
Настройки программы : cabac=1 / ref=3 / deblock=1:0:0 / analyse=0x3:0x113 / me=umh / subme=7 / psy=1 / psy_rd=1.00:0.00 / mixed_ref=1 / me_range=16 / chroma_me=1 / trellis=1 / 8x8dct=1 / cqm=0 / deadzone=21,11 / fast_pskip=1 / chroma_qp_offset=-2 / threads=34 / lookahead_threads=5 / sliced_threads=0 / nr=0 / decimate=1 / interlaced=0 / bluray_compat=0 / constrained_intra=0 / bframes=3 / b_pyramid=2 / b_adapt=1 / b_bias=0 / direct=1 / weightb=1 / open_gop=0 / weightp=2 / keyint=250 / keyint_min=25 / scenecut=40 / intra_refresh=0 / rc_lookahead=40 / rc=abr / mbtree=1 / bitrate=6800 / ratetol=1.0 / qcomp=0.60 / qpmin=0 / qpmax=69 / qpstep=4 / ip_ratio=1.40 / aq=1:1.00

Аудио
Идентификатор : 2
Формат : AAC
Формат/Информация : Advanced Audio Codec
Профиль формата : LC
Идентификатор кодека : 40
Продолжительность : 40 м.
Duration_LastFrame : -7 мс.
Вид битрейта : Постоянный
Битрейт : 192 Кбит/сек
Каналы : 2 канала
Расположение каналов : Front: L R
Частота : 44,1 КГц
Частота кадров : 43,066 кадра/сек (1024 spf)
Метод сжатия : С потерями
Размер потока : 56,2 Мбайт (3%)
Язык : English
Default : Да
AlternateGroup/String : 1

Общее
Полное имя : D:\WWW\Piper Perri\agm.16.12.12.ashley.adams.and.piper.perri.size.matters.mp4
Формат : MPEG-4
Профиль формата : Base Media
Идентификатор кодека : isom (isom/iso2/avc1/mp41)
Размер файла : 1,80 Гбайт
Продолжительность : 37 м.
Общий поток : 6939 Кбит/сек
Название фильма : RARBG.COM - AllGirlMassage.16.12.12.Ashley.Adams.And.Piper.Perri.Size.Matters.XXX.1080p.MP4-KTR
Программа кодирования : Lavf57.56.100
Примечание : RARBG.COM - AllGirlMassage.16.12.12.Ashley.Adams.And.Piper.Perri.Size.Matters.XXX.1080p.MP4-KTR

Видео
Идентификатор : 1
Формат : AVC
Формат/Информация : Advanced Video Codec
Профиль формата : [email protected]
Параметр CABAC формата : Да
Параметр ReFrames формата : 4 кадра
Идентификатор кодека : avc1
Идентификатор кодека/Информация : Advanced Video Coding
Продолжительность : 37 м.
Битрейт : 6800 Кбит/сек
Ширина : 1920 пикселей
Высота : 1080 пикселей
Соотношение сторон : 16:9
Режим частоты кадров : Постоянный
Частота кадров : 29,970 (29970/1000) кадров/сек
Цветовое пространство : YUV
Субдискретизация насыщенности : 4:2:0
Битовая глубина : 8 бит
Тип развёртки : Прогрессивная
Бит/(Пиксели*Кадры) : 0.109
Размер потока : 1,74 Гбайт (97%)
Библиотека кодирования : x264 core 148
Настройки программы : cabac=1 / ref=3 / deblock=1:0:0 / analyse=0x3:0x113 / me=umh / subme=7 / psy=1 / psy_rd=1.00:0.00 / mixed_ref=1 / me_range=16 / chroma_me=1 / trellis=1 / 8x8dct=1 / cqm=0 / deadzone=21,11 / fast_pskip=1 / chroma_qp_offset=-2 / threads=34 / lookahead_threads=5 / sliced_threads=0 / nr=0 / decimate=1 / interlaced=0 / bluray_compat=0 / constrained_intra=0 / bframes=3 / b_pyramid=2 / b_adapt=1 / b_bias=0 / direct=1 / weightb=1 / open_gop=0 / weightp=2 / keyint=250 / keyint_min=25 / scenecut=40 / intra_refresh=0 / rc_lookahead=40 / rc=abr / mbtree=1 / bitrate=6800 / ratetol=1.0 / qcomp=0.60 / qpmin=0 / qpmax=69 / qpstep=4 / ip_ratio=1.40 / aq=1:1.00

Аудио
Идентификатор : 2
Формат : AAC
Формат/Информация : Advanced Audio Codec
Профиль формата : LC
Идентификатор кодека : 40
Продолжительность : 37 м.
Duration_LastFrame : -6 мс.
Вид битрейта : Постоянный
Битрейт : 192 Кбит/сек
Каналы : 2 канала
Расположение каналов : Front: L R
Частота : 44,1 КГц
Частота кадров : 43,066 кадра/сек (1024 spf)
Метод сжатия : С потерями
Размер потока : 50,9 Мбайт (3%)
Default : Да
AlternateGroup/String : 1

Общее
Полное имя : D:\WWW\Piper Perri\Alex Grey, Jenna J Ross And Piper Perri - Three Ways To Paradise.mp4
Формат : MPEG-4
Профиль формата : Base Media
Идентификатор кодека : isom (isom/iso2/avc1/mp41)
Размер файла : 1,34 Гбайт
Продолжительность : 22 м.
Режим общего битрейта : Переменный
Общий поток : 8635 Кбит/сек
Название фильма : RARBG.COM - Colette.16.01.16.Alex.Grey.Jenna.J.Ross.And.Piper.Perri.Three.Ways.To.Paradise.XXX.1080p.MP4-KTR
Программа кодирования : Lavf56.40.101
Примечание : RARBG.COM - Colette.16.01.16.Alex.Grey.Jenna.J.Ross.And.Piper.Perri.Three.Ways.To.Paradise.XXX.1080p.MP4-KTR

Видео
Идентификатор : 1
Формат : AVC
Формат/Информация : Advanced Video Codec
Профиль формата : [email protected]
Параметр CABAC формата : Да
Параметр ReFrames формата : 4 кадра
Идентификатор кодека : avc1
Идентификатор кодека/Информация : Advanced Video Coding
Продолжительность : 22 м.
Битрейт : 8500 Кбит/сек
Ширина : 1920 пикселей
Высота : 1088 пикселей
Соотношение сторон : 16:9
Режим частоты кадров : Переменный
Частота кадров : 23,976 (24000/1001) кадра/сек
Минимальная частота кадров : 23,974 кадра/сек
Максимальная частота кадров : 23,981 кадра/сек
Цветовое пространство : YUV
Субдискретизация насыщенности : 4:2:0
Битовая глубина : 8 бит
Тип развёртки : Прогрессивная
Бит/(Пиксели*Кадры) : 0.170
Размер потока : 1,31 Гбайт (98%)
Библиотека кодирования : x264 core 142
Настройки программы : cabac=1 / ref=1 / deblock=1:0:0 / analyse=0x3:0x113 / me=hex / subme=2 / psy=1 / psy_rd=1.00:0.00 / mixed_ref=0 / me_range=16 / chroma_me=1 / trellis=0 / 8x8dct=1 / cqm=0 / deadzone=21,11 / fast_pskip=1 / chroma_qp_offset=0 / threads=12 / lookahead_threads=4 / sliced_threads=0 / nr=0 / decimate=1 / interlaced=0 / bluray_compat=0 / constrained_intra=0 / bframes=3 / b_pyramid=2 / b_adapt=1 / b_bias=0 / direct=1 / weightb=1 / open_gop=0 / weightp=1 / keyint=240 / keyint_min=24 / scenecut=40 / intra_refresh=0 / rc_lookahead=10 / rc=abr / mbtree=1 / bitrate=8500 / ratetol=1.0 / qcomp=0.60 / qpmin=0 / qpmax=69 / qpstep=4 / vbv_maxrate=62500 / vbv_bufsize=78125 / nal_hrd=none / filler=0 / ip_ratio=1.40 / aq=1:1.00
Цветовой диапазон : Limited
Основные цвета : BT.709
Характеристики трансфера : BT.709
Коэффициенты матрицы : BT.709

Аудио
Идентификатор : 2
Формат : AAC
Формат/Информация : Advanced Audio Codec
Профиль формата : LC
Идентификатор кодека : 40
Продолжительность : 22 м.
Вид битрейта : Переменный
Битрейт : 159 Кбит/сек
Максимальный битрейт : 200 Кбит/сек
Каналы : 2 канала
Расположение каналов : Front: L R
Частота : 48,0 КГц
Частота кадров : 46,875 кадров/сек (1024 spf)
Метод сжатия : С потерями
Размер потока : 25,2 Мбайт (2%)
Язык : English
Default : Да
AlternateGroup/String : 1

Общее
Полное имя : D:\WWW\Piper Perri\allfinegirls.16.10.07.piper.perry.apolonia.and.ally.no.talking.here.mp4
Формат : MPEG-4
Профиль формата : Base Media
Идентификатор кодека : isom (isom/iso2/avc1/mp41)
Размер файла : 740 Мбайт
Продолжительность : 23 м.
Общий поток : 4388 Кбит/сек
Программа кодирования : Lavf57.25.100

Видео
Идентификатор : 1
Формат : AVC
Формат/Информация : Advanced Video Codec
Профиль формата : [email protected]
Параметр CABAC формата : Да
Параметр ReFrames формата : 4 кадра
Идентификатор кодека : avc1
Идентификатор кодека/Информация : Advanced Video Coding
Продолжительность : 23 м.
Битрейт : 4124 Кбит/сек
Ширина : 1920 пикселей
Высота : 1080 пикселей
Соотношение сторон : 16:9
Режим частоты кадров : Постоянный
Частота кадров : 29,970 (29970/1000) кадров/сек
Цветовое пространство : YUV
Субдискретизация насыщенности : 4:2:0
Битовая глубина : 8 бит
Тип развёртки : Прогрессивная
Бит/(Пиксели*Кадры) : 0.066
Размер потока : 696 Мбайт (94%)
Библиотека кодирования : x264 core 148
Настройки программы : cabac=1 / ref=3 / deblock=1:-1:-1 / analyse=0x3:0x113 / me=hex / subme=7 / psy=1 / psy_rd=1.00:0.15 / mixed_ref=1 / me_range=16 / chroma_me=1 / trellis=1 / 8x8dct=1 / cqm=0 / deadzone=21,11 / fast_pskip=1 / chroma_qp_offset=-3 / threads=34 / lookahead_threads=5 / sliced_threads=0 / nr=0 / decimate=1 / interlaced=0 / bluray_compat=0 / constrained_intra=0 / bframes=3 / b_pyramid=2 / b_adapt=1 / b_bias=0 / direct=1 / weightb=1 / open_gop=0 / weightp=2 / keyint=120 / keyint_min=12 / scenecut=40 / intra_refresh=0 / rc_lookahead=40 / rc=crf / mbtree=1 / crf=20.0 / qcomp=0.60 / qpmin=0 / qpmax=69 / qpstep=4 / ip_ratio=1.40 / aq=1:1.00

Аудио
Идентификатор : 2
Формат : AAC
Формат/Информация : Advanced Audio Codec
Профиль формата : LC
Идентификатор кодека : 40
Продолжительность : 23 м.
Duration_LastFrame : 46 мс.
Вид битрейта : Постоянный
Битрейт : 256 Кбит/сек
Каналы : 2 канала
Расположение каналов : Front: L R
Частота : 44,1 КГц
Частота кадров : 43,066 кадра/сек (1024 spf)
Метод сжатия : С потерями
Размер потока : 43,2 Мбайт (6%)
Default : Да
AlternateGroup/String : 1

Общее
Полное имя : D:\WWW\Piper Perri\Apolonia_PiperPerry_DoubleSandwichRED_1920x1080_30fps.mp4
Формат : MPEG-4
Профиль формата : Base Media
Идентификатор кодека : isom (isom/iso2/avc1/mp41)
Размер файла : 1,31 Гбайт
Продолжительность : 36 м.
Общий поток : 5109 Кбит/сек
Программа кодирования : Lavf56.40.101

Видео
Идентификатор : 1
Формат : AVC
Формат/Информация : Advanced Video Codec
Профиль формата : [email protected]
Параметр CABAC формата : Да
Параметр ReFrames формата : 5 кадров
Идентификатор кодека : avc1
Идентификатор кодека/Информация : Advanced Video Coding
Продолжительность : 36 м.
Битрейт : 4845 Кбит/сек
Ширина : 1920 пикселей
Высота : 1080 пикселей
Соотношение сторон : 16:9
Режим частоты кадров : Постоянный
Частота кадров : 29,970 (29970/1000) кадров/сек
Цветовое пространство : YUV
Субдискретизация насыщенности : 4:2:0
Битовая глубина : 8 бит
Тип развёртки : Прогрессивная
Бит/(Пиксели*Кадры) : 0.078
Размер потока : 1,24 Гбайт (95%)
Библиотека кодирования : x264 core 148
Настройки программы : cabac=1 / ref=5 / deblock=1:-1:-1 / analyse=0x3:0x113 / me=umh / subme=8 / psy=1 / psy_rd=1.00:0.15 / mixed_ref=1 / me_range=16 / chroma_me=1 / trellis=1 / 8x8dct=1 / cqm=0 / deadzone=21,11 / fast_pskip=1 / chroma_qp_offset=-3 / threads=24 / lookahead_threads=4 / sliced_threads=0 / nr=0 / decimate=1 / interlaced=0 / bluray_compat=0 / constrained_intra=0 / bframes=3 / b_pyramid=2 / b_adapt=2 / b_bias=0 / direct=3 / weightb=1 / open_gop=0 / weightp=2 / keyint=120 / keyint_min=12 / scenecut=40 / intra_refresh=0 / rc_lookahead=50 / rc=crf / mbtree=1 / crf=20.0 / qcomp=0.60 / qpmin=0 / qpmax=69 / qpstep=4 / ip_ratio=1.40 / aq=1:1.00
Язык : English

Аудио
Идентификатор : 2
Формат : AAC
Формат/Информация : Advanced Audio Codec
Профиль формата : LC
Идентификатор кодека : 40
Продолжительность : 36 м.
Вид битрейта : Постоянный
Битрейт : 256 Кбит/сек
Каналы : 2 канала
Расположение каналов : Front: L R
Частота : 44,1 КГц
Частота кадров : 43,066 кадра/сек (1024 spf)
Метод сжатия : С потерями
Размер потока : 67,3 Мбайт (5%)
Язык : English
Default : Да
AlternateGroup/String : 1

Общее
Полное имя : D:\WWW\Piper Perri\ATKGirlfriends-Piper.Perri.Bangkok.2-6.1080p.mp4
Формат : MPEG-4
Профиль формата : Base Media
Идентификатор кодека : isom (isom/iso2/avc1/mp41)
Размер файла : 1,94 Гбайт
Продолжительность : 37 м.
Режим общего битрейта : Переменный
Общий поток : 7320 Кбит/сек
Программа кодирования : Lavf57.56.100

Видео
Идентификатор : 1
Формат : AVC
Формат/Информация : Advanced Video Codec
Профиль формата : [email protected]
Параметр CABAC формата : Нет
Параметр ReFrames формата : 3 кадра
Параметр GOP формата : M=1, N=60
Идентификатор кодека : avc1
Идентификатор кодека/Информация : Advanced Video Coding
Продолжительность : 37 м.
Вид битрейта : Переменный
Битрейт : 7185 Кбит/сек
Максимальный битрейт : 12,0 Мбит/сек
Ширина : 1920 пикселей
Высота : 1080 пикселей
Соотношение сторон : 16:9
Режим частоты кадров : Переменный
Частота кадров : 29,970 (30000/1001) кадров/сек
Минимальная частота кадров : 29,970 кадров/сек
Максимальная частота кадров : 30,000 кадров/сек
Стандарт вещания : NTSC
Цветовое пространство : YUV
Субдискретизация насыщенности : 4:2:0
Битовая глубина : 8 бит
Тип развёртки : Прогрессивная
Бит/(Пиксели*Кадры) : 0.116
Размер потока : 1,90 Гбайт (98%)
Цветовой диапазон : Limited

Аудио
Идентификатор : 2
Формат : AAC
Формат/Информация : Advanced Audio Codec
Профиль формата : LC
Идентификатор кодека : 40
Продолжительность : 37 м.
Вид битрейта : Постоянный
Битрейт : 128 Кбит/сек
Каналы : 2 канала
Расположение каналов : Front: L R
Частота : 48,0 КГц
Частота кадров : 46,875 кадров/сек (1024 spf)
Метод сжатия : С потерями
Размер потока : 34,7 Мбайт (2%)
Default : Да
AlternateGroup/String : 1

Общее
Полное имя : D:\WWW\Piper Perri\ATKGirlfriends-Piper.Perri.Bangkok.4-6.1080p.mp4
Формат : MPEG-4
Профиль формата : Base Media
Идентификатор кодека : isom (isom/iso2/avc1/mp41)
Размер файла : 1,67 Гбайт
Продолжительность : 33 м.
Режим общего битрейта : Переменный
Общий поток : 7112 Кбит/сек
Программа кодирования : Lavf57.56.100

Видео
Идентификатор : 1
Формат : AVC
Формат/Информация : Advanced Video Codec
Профиль формата : [email protected]
Параметр CABAC формата : Нет
Параметр ReFrames формата : 3 кадра
Параметр GOP формата : M=1, N=60
Идентификатор кодека : avc1
Идентификатор кодека/Информация : Advanced Video Coding
Продолжительность : 33 м.
Вид битрейта : Переменный
Битрейт : 6977 Кбит/сек
Максимальный битрейт : 12,0 Мбит/сек
Ширина : 1920 пикселей
Высота : 1080 пикселей
Соотношение сторон : 16:9
Режим частоты кадров : Переменный
Частота кадров : 29,970 (30000/1001) кадров/сек
Минимальная частота кадров : 29,970 кадров/сек
Максимальная частота кадров : 30,000 кадров/сек
Стандарт вещания : NTSC
Цветовое пространство : YUV
Субдискретизация насыщенности : 4:2:0
Битовая глубина : 8 бит
Тип развёртки : Прогрессивная
Бит/(Пиксели*Кадры) : 0.112
Размер потока : 1,63 Гбайт (98%)
Цветовой диапазон : Limited

Аудио
Идентификатор : 2
Формат : AAC
Формат/Информация : Advanced Audio Codec
Профиль формата : LC
Идентификатор кодека : 40
Продолжительность : 33 м.
Вид битрейта : Постоянный
Битрейт : 128 Кбит/сек
Каналы : 2 канала
Расположение каналов : Front: L R
Частота : 48,0 КГц
Частота кадров : 46,875 кадров/сек (1024 spf)
Метод сжатия : С потерями
Размер потока : 30,7 Мбайт (2%)
Default : Да
AlternateGroup/String : 1

Общее
Полное имя : D:\WWW\Piper Perri\ATKGirlfriends-Piper.Perri.Bangkok.5-6.1080p.mp4
Формат : MPEG-4
Профиль формата : Base Media
Идентификатор кодека : isom (isom/iso2/avc1/mp41)
Размер файла : 2,88 Гбайт
Продолжительность : 59 м.
Режим общего битрейта : Переменный
Общий поток : 6974 Кбит/сек
Программа кодирования : Lavf57.56.100

Видео
Идентификатор : 1
Формат : AVC
Формат/Информация : Advanced Video Codec
Профиль формата : [email protected]
Параметр CABAC формата : Нет
Параметр ReFrames формата : 3 кадра
Параметр GOP формата : M=1, N=60
Идентификатор кодека : avc1
Идентификатор кодека/Информация : Advanced Video Coding
Продолжительность : 59 м.
Вид битрейта : Переменный
Битрейт : 6839 Кбит/сек
Максимальный битрейт : 12,0 Мбит/сек
Ширина : 1920 пикселей
Высота : 1080 пикселей
Соотношение сторон : 16:9
Режим частоты кадров : Переменный
Частота кадров : 29,970 (30000/1001) кадров/сек
Минимальная частота кадров : 29,970 кадров/сек
Максимальная частота кадров : 30,000 кадров/сек
Стандарт вещания : NTSC
Цветовое пространство : YUV
Субдискретизация насыщенности : 4:2:0
Битовая глубина : 8 бит
Тип развёртки : Прогрессивная
Бит/(Пиксели*Кадры) : 0.110
Размер потока : 2,83 Гбайт (98%)
Цветовой диапазон : Limited

Аудио
Идентификатор : 2
Формат : AAC
Формат/Информация : Advanced Audio Codec
Профиль формата : LC
Идентификатор кодека : 40
Продолжительность : 59 м.
Вид битрейта : Постоянный
Битрейт : 128 Кбит/сек
Каналы : 2 канала
Расположение каналов : Front: L R
Частота : 48,0 КГц
Частота кадров : 46,875 кадров/сек (1024 spf)
Метод сжатия : С потерями
Размер потока : 54,2 Мбайт (2%)
Default : Да
AlternateGroup/String : 1

Общее
Полное имя : D:\WWW\Piper Perri\ATKGirlfriends-Piper.Perri.Bangkok.6-6.1080p.mp4
Формат : MPEG-4
Профиль формата : Base Media
Идентификатор кодека : isom (isom/iso2/avc1/mp41)
Размер файла : 2,25 Гбайт
Продолжительность : 45 м.
Режим общего битрейта : Переменный
Общий поток : 7046 Кбит/сек
Программа кодирования : Lavf57.56.100

Видео
Идентификатор : 1
Формат : AVC
Формат/Информация : Advanced Video Codec
Профиль формата : [email protected]
Параметр CABAC формата : Нет
Параметр ReFrames формата : 3 кадра
Параметр GOP формата : M=1, N=60
Идентификатор кодека : avc1
Идентификатор кодека/Информация : Advanced Video Coding
Продолжительность : 45 м.
Вид битрейта : Переменный
Битрейт : 6911 Кбит/сек
Максимальный битрейт : 12,0 Мбит/сек
Ширина : 1920 пикселей
Высота : 1080 пикселей
Соотношение сторон : 16:9
Режим частоты кадров : Переменный
Частота кадров : 29,970 (30000/1001) кадров/сек
Минимальная частота кадров : 29,970 кадров/сек
Максимальная частота кадров : 30,000 кадров/сек
Стандарт вещания : NTSC
Цветовое пространство : YUV
Субдискретизация насыщенности : 4:2:0
Битовая глубина : 8 бит
Тип развёртки : Прогрессивная
Бит/(Пиксели*Кадры) : 0.111
Размер потока : 2,21 Гбайт (98%)
Цветовой диапазон : Limited

Аудио
Идентификатор : 2
Формат : AAC
Формат/Информация : Advanced Audio Codec
Профиль формата : LC
Идентификатор кодека : 40
Продолжительность : 45 м.
Вид битрейта : Постоянный
Битрейт : 128 Кбит/сек
Каналы : 2 канала
Расположение каналов : Front: L R
Частота : 48,0 КГц
Частота кадров : 46,875 кадров/сек (1024 spf)
Метод сжатия : С потерями
Размер потока : 41,9 Мбайт (2%)
Default : Да
AlternateGroup/String : 1

Общее
Полное имя : D:\WWW\Piper Perri\ATKGirlfriends-Piper.Perri.Hawaii-4-7..1080p.mp4
Формат : MPEG-4
Профиль формата : Base Media
Идентификатор кодека : isom (isom/iso2/avc1/mp41)
Размер файла : 2,12 Гбайт
Продолжительность : 39 м.
Режим общего битрейта : Переменный
Общий поток : 7633 Кбит/сек
Программа кодирования : Lavf56.40.101

Видео
Идентификатор : 1
Формат : AVC
Формат/Информация : Advanced Video Codec
Профиль формата : [email protected]
Параметр CABAC формата : Нет
Параметр ReFrames формата : 3 кадра
Параметр GOP формата : M=1, N=60
Идентификатор кодека : avc1
Идентификатор кодека/Информация : Advanced Video Coding
Продолжительность : 39 м.
Вид битрейта : Переменный
Битрейт : 7498 Кбит/сек
Максимальный битрейт : 12,0 Мбит/сек
Ширина : 1920 пикселей
Высота : 1080 пикселей
Соотношение сторон : 16:9
Режим частоты кадров : Переменный
Частота кадров : 29,970 (30000/1001) кадров/сек
Минимальная частота кадров : 29,970 кадров/сек
Максимальная частота кадров : 30,000 кадров/сек
Стандарт вещания : NTSC
Цветовое пространство : YUV
Субдискретизация насыщенности : 4:2:0
Битовая глубина : 8 бит
Тип развёртки : Прогрессивная
Бит/(Пиксели*Кадры) : 0.121
Размер потока : 2,08 Гбайт (98%)
Цветовой диапазон : Limited
Основные цвета : BT.709
Характеристики трансфера : BT.709
Коэффициенты матрицы : BT.709

Аудио
Идентификатор : 2
Формат : AAC
Формат/Информация : Advanced Audio Codec
Профиль формата : LC
Идентификатор кодека : 40
Продолжительность : 39 м.
Вид битрейта : Постоянный
Битрейт : 128 Кбит/сек
Каналы : 2 канала
Расположение каналов : Front: L R
Частота : 48,0 КГц
Частота кадров : 46,875 кадров/сек (1024 spf)
Метод сжатия : С потерями
Размер потока : 36,4 Мбайт (2%)
Default : Да
AlternateGroup/String : 1

Общее
Полное имя : D:\WWW\Piper Perri\ATKGirlfriends-Piper.Perri.HJ.BJ.FJ.#3.1080p.mp4
Формат : MPEG-4
Профиль формата : Base Media
Идентификатор кодека : isom (isom/iso2/avc1/mp41)
Размер файла : 1,28 Гбайт
Продолжительность : 25 м.
Режим общего битрейта : Переменный
Общий поток : 7212 Кбит/сек
Программа кодирования : Lavf57.25.100

Видео
Идентификатор : 1
Формат : AVC
Формат/Информация : Advanced Video Codec
Профиль формата : [email protected]
Параметр CABAC формата : Нет
Параметр ReFrames формата : 3 кадра
Параметр GOP формата : M=1, N=60
Идентификатор кодека : avc1
Идентификатор кодека/Информация : Advanced Video Coding
Продолжительность : 25 м.
Вид битрейта : Переменный
Битрейт : 7077 Кбит/сек
Максимальный битрейт : 12,0 Мбит/сек
Ширина : 1920 пикселей
Высота : 1080 пикселей
Соотношение сторон : 16:9
Режим частоты кадров : Переменный
Частота кадров : 29,970 (30000/1001) кадров/сек
Минимальная частота кадров : 29,970 кадров/сек
Максимальная частота кадров : 30,000 кадров/сек
Стандарт вещания : NTSC
Цветовое пространство : YUV
Субдискретизация насыщенности : 4:2:0
Битовая глубина : 8 бит
Тип развёртки : Прогрессивная
Бит/(Пиксели*Кадры) : 0.114
Размер потока : 1,26 Гбайт (98%)
Цветовой диапазон : Limited
Основные цвета : BT.709
Характеристики трансфера : BT.709
Коэффициенты матрицы : BT.709

Аудио
Идентификатор : 2
Формат : AAC
Формат/Информация : Advanced Audio Codec
Профиль формата : LC
Идентификатор кодека : 40
Продолжительность : 25 м.
Вид битрейта : Постоянный
Битрейт : 128 Кбит/сек
Каналы : 2 канала
Расположение каналов : Front: L R
Частота : 48,0 КГц
Частота кадров : 46,875 кадров/сек (1024 spf)
Метод сжатия : С потерями
Размер потока : 23,3 Мбайт (2%)
Default : Да
AlternateGroup/String : 1

Общее
Полное имя : D:\WWW\Piper Perri\ATKGirlfriends-Piper.Perri.Malaysia.1-5.1080p.mp4
Формат : MPEG-4
Профиль формата : Base Media
Идентификатор кодека : isom (isom/iso2/avc1/mp41)
Размер файла : 3,34 Гбайт
Продолжительность : 1 ч. 6 м.
Режим общего битрейта : Переменный
Общий поток : 7228 Кбит/сек
Программа кодирования : Lavf57.56.100

Видео
Идентификатор : 1
Формат : AVC
Формат/Информация : Advanced Video Codec
Профиль формата : [email protected]
Параметр CABAC формата : Нет
Параметр ReFrames формата : 3 кадра
Параметр GOP формата : M=1, N=60
Идентификатор кодека : avc1
Идентификатор кодека/Информация : Advanced Video Coding
Продолжительность : 1 ч. 6 м.
Вид битрейта : Переменный
Битрейт : 7093 Кбит/сек
Максимальный битрейт : 12,0 Мбит/сек
Ширина : 1920 пикселей
Высота : 1080 пикселей
Соотношение сторон : 16:9
Режим частоты кадров : Переменный
Частота кадров : 29,970 (30000/1001) кадров/сек
Минимальная частота кадров : 29,970 кадров/сек
Максимальная частота кадров : 30,000 кадров/сек
Стандарт вещания : NTSC
Цветовое пространство : YUV
Субдискретизация насыщенности : 4:2:0
Битовая глубина : 8 бит
Тип развёртки : Прогрессивная
Бит/(Пиксели*Кадры) : 0.114
Размер потока : 3,28 Гбайт (98%)
Цветовой диапазон : Limited
Основные цвета : BT.709
Характеристики трансфера : BT.709
Коэффициенты матрицы : BT.709

Аудио
Идентификатор : 2
Формат : AAC
Формат/Информация : Advanced Audio Codec
Профиль формата : LC
Идентификатор кодека : 40
Продолжительность : 1 ч. 6 м.
Вид битрейта : Постоянный
Битрейт : 128 Кбит/сек
Каналы : 2 канала
Расположение каналов : Front: L R
Частота : 48,0 КГц
Частота кадров : 46,875 кадров/сек (1024 spf)
Метод сжатия : С потерями
Размер потока : 60,6 Мбайт (2%)
Default : Да
AlternateGroup/String : 1

Общее
Полное имя : D:\WWW\Piper Perri\ATKGirlfriends-Piper.Perri.Malaysia.3-5.1080p.mp4
Формат : MPEG-4
Профиль формата : Base Media
Идентификатор кодека : isom (isom/iso2/avc1/mp41)
Размер файла : 1,86 Гбайт
Продолжительность : 35 м.
Режим общего битрейта : Переменный
Общий поток : 7500 Кбит/сек
Программа кодирования : Lavf57.56.100

Видео
Идентификатор : 1
Формат : AVC
Формат/Информация : Advanced Video Codec
Профиль формата : [email protected]
Параметр CABAC формата : Нет
Параметр ReFrames формата : 3 кадра
Параметр GOP формата : M=1, N=60
Идентификатор кодека : avc1
Идентификатор кодека/Информация : Advanced Video Coding
Продолжительность : 35 м.
Вид битрейта : Переменный
Битрейт : 7365 Кбит/сек
Максимальный битрейт : 12,0 Мбит/сек
Ширина : 1920 пикселей
Высота : 1080 пикселей
Соотношение сторон : 16:9
Режим частоты кадров : Переменный
Частота кадров : 29,970 (30000/1001) кадров/сек
Минимальная частота кадров : 29,970 кадров/сек
Максимальная частота кадров : 30,000 кадров/сек
Стандарт вещания : NTSC
Цветовое пространство : YUV
Субдискретизация насыщенности : 4:2:0
Битовая глубина : 8 бит
Тип развёртки : Прогрессивная
Бит/(Пиксели*Кадры) : 0.119
Размер потока : 1,82 Гбайт (98%)
Цветовой диапазон : Limited
Основные цвета : BT.709
Характеристики трансфера : BT.709
Коэффициенты матрицы : BT.709

Аудио
Идентификатор : 2
Формат : AAC
Формат/Информация : Advanced Audio Codec
Профиль формата : LC
Идентификатор кодека : 40
Продолжительность : 35 м.
Вид битрейта : Постоянный
Битрейт : 128 Кбит/сек
Каналы : 2 канала
Расположение каналов : Front: L R
Частота : 48,0 КГц
Частота кадров : 46,875 кадров/сек (1024 spf)
Метод сжатия : С потерями
Размер потока : 32,4 Мбайт (2%)
Default : Да
AlternateGroup/String : 1

Общее
Полное имя : D:\WWW\Piper Perri\ATKGirlfriends-Piper.Perri.Singapore.#1.6-6.1080p.mp4
Формат : MPEG-4
Профиль формата : Base Media
Идентификатор кодека : isom (isom/iso2/avc1/mp41)
Размер файла : 1,55 Гбайт
Продолжительность : 29 м.
Режим общего битрейта : Переменный
Общий поток : 7431 Кбит/сек
Программа кодирования : Lavf57.56.100

Видео
Идентификатор : 1
Формат : AVC
Формат/Информация : Advanced Video Codec
Профиль формата : [email protected]
Параметр CABAC формата : Нет
Параметр ReFrames формата : 3 кадра
Параметр GOP формата : M=1, N=60
Идентификатор кодека : avc1
Идентификатор кодека/Информация : Advanced Video Coding
Продолжительность : 29 м.
Вид битрейта : Переменный
Битрейт


_________________
Проголосуй за трекер Открытый торрент трекер - RUS-MEDIA.ORG

Проголосуй Открытый торрент трекер - RUS-MEDIA.ORG


Вернуться к началу
 Профиль Отправить личное сообщение  
 
   Похожие торренты   Автор   Торрент   Размер 
В этой теме нет новых непрочитанных сообщений. [GirlsWay.com] Piper Perri, Katrina Jade, Elena Koshka (Showcases: Piper Perri - 2 Scenes In 1 / 08.01.2018) [Girl on Girl, Natural Tits, Small Tits, Fingering, Teen, College, Tattoos, Pussy Licking, Petite, Facesitting, 1080p]

salma3

29 | 9

4.26 ГБ

В этой теме нет новых непрочитанных сообщений. [POVD.com] Piper Perri (Piper Plays Hookey / 2017-10-13) [2017 г., Teen, Small Tits, Skinny, Petite, Blonde, Blowjob, Big Dick, POV, Hardcore, All Sex, 1080p]

salma3

38 | 13

1.91 ГБ

В этой теме нет новых непрочитанных сообщений. [Lubed.com] Piper Perri - Wet and Petite (05.03.2018) [2018 г., Teen, Blowjob, Petite, Small Tits, Irrumation, Fingering, Creampie, 1080p]

salma3

0 | 1

2.27 ГБ

В этой теме нет новых непрочитанных сообщений. [GirlsWay.com] Piper Perri, Riley Anne - Sister Stories: First Date [2018 г., Blonde, Girl on Girl, Natural Tits, Small Tits, Fingering, Teen, 69, Pussy Licking, Petite, Family Roleplay, Tribbing, Step Sister, Lesbian, 1080p]

salma3

35 | 12

1.46 ГБ

В этой теме нет новых непрочитанных сообщений. [Lubed.com] Piper Perri (Wet and Petite / 05.03.2018) [All sex, Teen, Blowjob, Petite, Small Tits, Irrumation, Fingering, Oil, Creampie, Hardcore, 720p, HDRip]

salma3

0 | 0

1.12 ГБ

В этой теме нет новых непрочитанных сообщений. [POVD.com] Piper Perri (Piper Plays Hookey / 2017-10-13) [2017 г., Teen, Small Tits, Skinny, Petite, Blonde, Blowjob, Big Dick, POV, Hardcore, All Sex, 720p]

salma3

24 | 8

865.81 МБ

В этой теме нет новых непрочитанных сообщений. [PureTaboo.com] Piper Perri (Fuck Me First Daddy / 03.10.2017) [Blonde, Hardcore, Masturbation, Natural Tits, Small Tits, Teen, 69, Pussy Licking, Petite, IR, Family Roleplay, 1080p, HDRip]

salma3

37 | 12

1.79 ГБ


Начать новую тему Ответить на тему  [ 1 сообщение ] 




Для Мосгорсуда, Роскомнадзора и рекламодателей:: mosgorsud-torrent[собачка]yandex.ru
cron