Торрент файл
скачать торрент магнет ссылка Добавлен: 09 июн 2014, 00:18
Размер: 5.36 ГБ
Сидеров: 4
Личеров: 5
Автор

СообщениеДобавлено: 09 июн 2014, 00:18 

Не в сети
Супермодератор
Аватара пользователя
Дата регистрации:
06 июн 2014, 07:51
Спасибо: 631 / 0
Сообщения: 1997
Чувство юмора Выпуск №4 (эфир от 07.06.2014)


Страна: Россия
Режиссер: Первый канал
Жанр: юмористическое шоу
Продолжительность: 00:51:58
Год выпуска: 2014

Ведущий: Виктор Васильев

Описание: Состязание, в котором выступления участников оцениваются членами авторитетного жюри. Ведущий – Виктор Васильев. Жюри – Александр Масляков и Юлий Гусман. Действо разворачивается вокруг двух приглашенных звезд. Каждому в помощь - целая команда популярных КВН-щиков. В ходе конкурсов, миниатюр и импровизационных сценок гости и их помощники выясняют, чье чувство юмора острее.

Перевод: Не требуется, cубтитры: отсутствуют
Формат: HDTVRip 1080i, MPEG-TS, Н.264, AC3
Видео: 1920x1080 (16:9), 25 fps, AVC, , 13700 Кбит/с, 0.263 bit/pixel
Аудио: 48 kHz,Dolby AC3 6 ch, 384 Кбит/с
General
ID : 1 (0x1)
Complete name : E:UsersМаксимкаDownloadsChuvstvo umora.04.HDTV(1080i).ts
Format : MPEG-TS
File size : 5.36 GiB
Duration : 51mn 58s
Overall bit rate mode : Variable
Overall bit rate : 14.8 Mbps

Video
ID : 5481 (0x1569)
Menu ID : 1 (0x1)
Format : AVC
Format/Info : Advanced Video Codec
Format profile :
Format settings, CABAC : Yes
Format settings, ReFrames : 3 frames
Format settings, GOP : M=4, N=32
Codec ID : 27
Duration : 51mn 58s
Bit rate : 13.7 Mbps
Width : 1 920 pixels
Height : 1 080 pixels
Display aspect ratio : 16:9
Frame rate : 25.000 fps
Standard : Component
Color space : YUV
Chroma subsampling : 4:2:0
Bit depth : 8 bits
Scan type : Interlaced
Scan order : Top Field First
Bits/(Pixel*Frame) : 0.263
Stream size : 4.96 GiB (92%)
Color primaries : BT.709
Transfer characteristics : BT.709
Matrix coefficients : BT.709

Audio
ID : 5485 (0x156D)
Menu ID : 1 (0x1)
Format : AC-3
Format/Info : Audio Coding 3
Mode extension : CM (complete main)
Format settings, Endianness : Big
Codec ID : 6
Duration : 51mn 58s
Bit rate mode : Constant
Bit rate : 384 Kbps
Channel(s) : 6 channels
Channel positions : Front: L C R, Side: L R, LFE
Sampling rate : 48.0 KHz
Bit depth : 16 bits
Compression mode : Lossy
Delay relative to video : -40ms
Stream size : 143 MiB (3%)
Language : Russian





Вернуться к началу
 Профиль Отправить личное сообщение  
 
   Похожие торренты   Автор   Торрент   Размер 
В этой теме нет новых непрочитанных сообщений. КВН-2015. Премьер-лига. Первый полуфинал [22.08] (Первый канал) [Юмор, 2015] HDTV 1080i

Dracon

778 | 123

7 ГБ

В этой теме нет новых непрочитанных сообщений. Тайный мир / La promesse [драма, 1969] HDTV 1080i, Mvo [Первый канал]

salma3

21 | 14

4.77 ГБ

В этой теме нет новых непрочитанных сообщений. Голос [04х02] (Первый канал) [Музыка, концерт, 2015] HDTV 1080i

Dracon

738 | 99

10.03 ГБ

В этой теме нет новых непрочитанных сообщений. Голос [04х11] (Первый канал) [Музыка, концерт, 2015] HDTV 1080i

Dracon

839 | 302

6.86 ГБ

В этой теме нет новых непрочитанных сообщений. Голос [04х17] (Первый канал) [Музыка, концерт, 2015] HDTV 1080i

Dracon

1232 | 190

9.64 ГБ

В этой теме нет новых непрочитанных сообщений. Голос [04х16] (Первый канал) [Музыка, концерт, 2015] HDTV 1080i

Dracon

975 | 59

8.63 ГБ

В этой теме нет новых непрочитанных сообщений. Голос [04х05] (Первый канал) [Музыка, концерт, 2015] HDTV 1080i

Dracon

950 | 362

8.76 ГБ


Начать новую тему Ответить на тему  [ 1 сообщение ] 




Для Мосгорсуда, Роскомнадзора и рекламодателей:: mosgorsud-torrent[собачка]yandex.ru
cron