Торрент файл
скачать торрент магнет ссылка Добавлен: 26 мар 2018, 11:38
Размер: 3.45 ГБ
Сидеров: 0
Личеров: 0
Статус: (salma3)
Автор

СообщениеДобавлено: 26 мар 2018, 11:38 

Не в сети
Супермодератор
Аватара пользователя
Дата регистрации:
15 фев 2012, 16:44
Возраст: 28
Спасибо: 7224 / 2147
Сообщения: 67920
Год выхода: 2017
Жанр: Мультфильм
Режиссер: Александр Романец, Вячеслав Марченко

Роли озвучивают: Михаил Галустян, Александр Ревва, Гарик Харламов, Александр Романец, Вячеслав Марченко, Илья Дорогов, Сергей Васин, Денис Заречнов, Никита Погодаев, Олег Кучин

О фильме:
На бескрайних просторах Всемирной паутины, в Колобанге, беззаботно живут ничего не подозревающие смайлы-колобки. Они помогают мальчику Антону передавать эмоции в письмах, а в свободное от работы время отрываются по-круглому! Но однажды в городе происходит несколько таинственных событий, и становится понятно: коварные и могущественные силы хотят поработить Интернет! Смелые друзья — Чёлка, Колобок и Умник — встретятся с пришельцами, посетят заброшенный сайт, побывают в Карантине и столкнутся лицом к лицу с армией Правителя Фидо… Удастся ли им спасти Интернет, находясь на краю пропасти? «Колобанга» покажет!



Страна: Россия
Продолжительность: 01:29:26
Перевод: Не требуется [iTunes]

Файл
Качество: WEB-DL 1080p
Формат: MKV
Кодек: MPEG-4 AVC
Видео: 1920x1080 (16:9), 25 fps, MPEG-4 AVC ~ 5034 kbps avg, 0.097 bit/pixel
Аудио: AC3, 48 kHz, 6 ch, ~384.00 kbps avg | русский | iTunes

Общее
Уникальный идентификатор : 235602825843113609588585844512908529576 (0xB13F742779C303B882D7ED6662D64FA8)
Полное имя : KOLOBANGA_WEB_DL_1080p-BLUEBIRD.mkv
Формат : Matroska
Версия формата : Version 4 / Version 2
Размер файла : 3,45 Гбайт
Продолжительность : 1 ч. 29 м.
Общий поток : 5528 Кбит/сек
Название фильма : KOLOBANGA_WEB_DL_1080p-BLUEBIRD
Дата кодирования : UTC 2018-03-25 18:44:34
Программа кодирования : mkvmerge v6.9.1 ('Blue Panther') 32bit built on Apr 18 2014 18:15:44
Библиотека кодирования : libebml v1.3.0 + libmatroska v1.4.1

Видео
Идентификатор : 1
Формат : AVC
Формат/Информация : Advanced Video Codec
Профиль формата : [email protected]
Настройки формата : CABAC / 4 Ref Frames
Параметр CABAC формата : Да
Параметр ReFrames формата : 4 кадра
Идентификатор кодека : V_MPEG4/ISO/AVC
Продолжительность : 1 ч. 29 м.
Битрейт : 5034 Кбит/сек
Ширина : 1920 пикселей
Высота : 1080 пикселей
Соотношение сторон : 16:9
Режим частоты кадров : Постоянный
Частота кадров : 25,000 кадров/сек
Цветовое пространство : YUV
Субдискретизация насыщенности : 4:2:0
Битовая глубина : 8 бит
Тип развёртки : Прогрессивная
Бит/(Пиксели*Кадры) : 0.097
Размер потока : 3,14 Гбайт (91%)
Заголовок : KOLOBANGA_WEB_DL_1080p-BLUEBIRD
Язык : English
Default : Да
Forced : Нет
Цветовой диапазон : Limited
Основные цвета : BT.709
Характеристики трансфера : BT.709
Коэффициенты матрицы : BT.709

Аудио
Идентификатор : 2
Формат : AC-3
Формат/Информация : Audio Coding 3
Идентификатор кодека : A_AC3
Продолжительность : 1 ч. 29 м.
Вид битрейта : Постоянный
Битрейт : 384 Кбит/сек
Каналы : 6 каналов
Расположение каналов : Front: L C R, Side: L R, LFE
Частота : 48,0 КГц
Частота кадров : 31,250 кадров/сек (1536 SPF)
Битовая глубина : 16 бит
Метод сжатия : С потерями
Размер потока : 246 Мбайт (7%)
Заголовок : [ORIGINAL] DD 5.1 @ 384 kbps (iTunes)
Язык : Russian
Default : Да
Forced : Нет

Меню
00:00:00.000 : en:Глава 1
00:05:27.240 : en:Глава 2
00:11:45.760 : en:Глава 3
00:17:23.800 : en:Глава 4
00:24:35.560 : en:Глава 5
00:31:32.320 : en:Глава 6
00:37:42.120 : en:Глава 7
00:43:59.880 : en:Глава 8
00:50:47.680 : en:Глава 9
00:58:05.720 : en:Глава 10
01:03:22.720 : en:Глава 11
01:08:41.880 : en:Глава 12
01:13:58.200 : en:Глава 13
01:18:37.960 : en:Глава 14
01:22:34.400 : en:Глава 15




_________________
Проголосуй за трекер Открытый торрент трекер - RUS-MEDIA.ORG

Проголосуй Открытый торрент трекер - RUS-MEDIA.ORG


Вернуться к началу
 Профиль Отправить личное сообщение  
 
   Похожие торренты   Автор   Торрент   Размер 
В этой теме нет новых непрочитанных сообщений. Чудо-Юдо [мультфильм, фэнтези, 2017] WEB-DL 1080p [iTunes]

salma3

0 | 0

2.86 ГБ

В этой теме нет новых непрочитанных сообщений. Заячья школа / Rabbit school [Мультфильм, семейный, 2017] WEB-DL 1080p, Dub [iTunes]

salma3

258 | 24

2.79 ГБ

В этой теме нет новых непрочитанных сообщений. Гадкий я 3 / Despicable Me 3 [мультфильм, фантастика, боевик, 2017] BDRemux 1080p, Dub [iTunes]

salma3

272 | 103

18.52 ГБ

В этой теме нет новых непрочитанных сообщений. Мы – монстры / Happy Family [Мультфильм, ужасы, комедия, 2017] BDRip 1080p, Dub [iTunes]

salma3

0 | 0

8.25 ГБ

В этой теме нет новых непрочитанных сообщений. Гадкий я 3 / Despicable Me 3 [Мультфильм, Фантастика, Боевик, 2017] BDRip 1080p, Dub [3D-Video] [iTunes]

salma3

163 | 140

7.97 ГБ

В этой теме нет новых непрочитанных сообщений. Тайна Коко / Coco [мультфильм, фэнтези, комедия, 2017] BDRip 1080p, Dub [3D-Video] [iTunes]

salma3

0 | 0

8.09 ГБ

В этой теме нет новых непрочитанных сообщений. Лови волну 2 / Surf's Up 2: WaveMania [Мультфильм, комедия, семейный, спорт, 2017] WEB-DL 1080p, Dub+Sub [iTunes]

salma3

2997 | 400

3.54 ГБ


Начать новую тему Ответить на тему  [ 1 сообщение ] 




Для Мосгорсуда, Роскомнадзора и рекламодателей:: mosgorsud-torrent[собачка]yandex.ru
cron