Торрент файл
скачать торрент магнет ссылка Добавлен: 18 янв 2018, 11:52
Размер: 7.74 ГБ
Сидеров: 0
Личеров: 0
Статус: (salma3)
Автор

СообщениеДобавлено: 27 дек 2017, 00:05 

Не в сети
Супермодератор
Аватара пользователя
Дата регистрации:
15 фев 2012, 16:44
Возраст: 28
Спасибо: 7223 / 2147
Сообщения: 67717
Год выхода: 2017
Жанр: Мультфильм, боевик, комедия
Режиссер: Чарли Бин, Пол Фишер, Боб Логан

В ролях: Джеки Чан, Дэйв Франко, Фред Армисен, Кумэйл Нанджиани, Майкл Пенья, Эбби Джейкобсон, Зак Вудс, Дэвид Берроуз, Джастин Теру

О фильме:
Ниндзяго-сити призывает на свою защиту юного Ллойда, он же Зеленый ниндзя, и его друзей, тайных воинов и Великих мастеров ЛЕГО. Под предводительством кунг-фу мастера Ву, столь же умного, сколь и остроумного, они должны одолеть злобного диктатора Гармадона, Самого Злодейского Злодея, который оказывается отцом Ллойда. Роботы против роботов, сын против отца; эпическое столкновение проверит на прочность эту неистовую, но не самую дисциплинированную команду современных ниндзя, которые должны научиться усмирять свое самомнение, чтобы по полной проявить свои способности.



Страна: Дания, США
Продолжительность: 01:41:26
Перевод: Дублированный [Лицензия]

Файл
Качество: BDRip 1080p
Видео: MPEG-4 AVC, 1920x804, 10.0 Mbit/s, 23.976 fps
Аудио01: 48 kHz, AC3, 5.1, 448 Kbps | Дублированный | RUS |
Аудио02: 48 kHz, AC3, 5.1, 448 Kbps | Оригинал | ENG |
Субтитры: Русские (forced, full), английские

General
Unique ID : 257759119674509209511463973586175869417 (0xC1EA99C79B41B202B54D3318436941E9)
Complete name : G:VideoSSDThe.LEGO.Ninjago.Movie.2017.BDRip.1080p.ExKinoRay.mkv
Format : Matroska
Format version : Version 4 / Version 2
File size : 7.69 GiB
Duration : 1 h 41 min
Overall bit rate : 10.9 Mb/s
Movie name : The LEGO Ninjago Movie 2017 from ExKinoRay
Encoded date : UTC 2017-12-26 19:26:04
Writing application : mkvmerge v19.0.0 ('Brave Captain') 64-bit
Writing library : libebml v1.3.5 + libmatroska v1.4.8

Video
ID : 1
Format : AVC
Format/Info : Advanced Video Codec
Format profile : [email protected]
Format settings : CABAC / 5 Ref Frames
Format settings, CABAC : Yes
Format settings, ReFrames : 5 frames
Codec ID : V_MPEG4/ISO/AVC
Duration : 1 h 41 min
Bit rate : 10.0 Mb/s
Width : 1 920 pixels
Height : 804 pixels
Display aspect ratio : 2.40:1
Frame rate mode : Constant
Frame rate : 23.976 (24000/1001) FPS
Color space : YUV
Chroma subsampling : 4:2:0
Bit depth : 8 bits
Scan type : Progressive
Bits/(Pixel*Frame) : 0.271
Stream size : 7.10 GiB (92%)
Writing library : x264 core 148 r2705 3f5ed56
Encoding settings : cabac=1 / ref=5 / deblock=1:-2:-2 / analyse=0x3:0x133 / me=umh / subme=11 / psy=1 / psy_rd=1.05:0.05 / mixed_ref=1 / me_range=32 / chroma_me=1 / trellis=2 / 8x8dct=1 / cqm=0 / deadzone=21,11 / fast_pskip=0 / chroma_qp_offset=-3 / threads=24 / lookahead_threads=4 / sliced_threads=0 / nr=0 / decimate=0 / interlaced=0 / bluray_compat=0 / constrained_intra=0 / bframes=8 / b_pyramid=2 / b_adapt=2 / b_bias=0 / direct=3 / weightb=1 / open_gop=0 / weightp=2 / keyint=240 / keyint_min=23 / scenecut=40 / intra_refresh=0 / rc_lookahead=50 / rc=2pass / mbtree=0 / bitrate=10020 / ratetol=1.0 / qcomp=0.60 / qpmin=0 / qpmax=69 / qpstep=4 / cplxblur=20.0 / qblur=0.5 / vbv_maxrate=50000 / vbv_bufsize=62500 / nal_hrd=none / filler=0 / ip_ratio=1.40 / pb_ratio=1.30 / aq=3:0.80
Language : English
Default : Yes
Forced : No

Audio #1
ID : 2
Format : AC-3
Format/Info : Audio Coding 3
Codec ID : A_AC3
Duration : 1 h 41 min
Bit rate mode : Constant
Bit rate : 384 kb/s
Channel(s) : 6 channels
Channel positions : Front: L C R, Side: L R, LFE
Sampling rate : 48.0 kHz
Frame rate : 31.250 FPS (1536 SPF)
Bit depth : 16 bits
Compression mode : Lossy
Stream size : 279 MiB (4%)
Title : iTunes
Language : Russian
Service kind : Complete Main
Default : Yes
Forced : No

Audio #2
ID : 3
Format : AC-3
Format/Info : Audio Coding 3
Codec ID : A_AC3
Duration : 1 h 41 min
Bit rate mode : Constant
Bit rate : 448 kb/s
Channel(s) : 6 channels
Channel positions : Front: L C R, Side: L R, LFE
Sampling rate : 48.0 kHz
Frame rate : 31.250 FPS (1536 SPF)
Bit depth : 16 bits
Compression mode : Lossy
Stream size : 325 MiB (4%)
Title : Original
Language : English
Service kind : Complete Main
Default : No
Forced : No

Text #1
ID : 4
Format : UTF-8
Codec ID : S_TEXT/UTF8
Codec ID/Info : UTF-8 Plain Text
Duration : 1 h 40 min
Bit rate : 123 b/s
Count of elements : 1784
Stream size : 91.5 KiB (0%)
Title : Full
Language : Russian
Default : No
Forced : No

Text #2
ID : 5
Format : UTF-8
Codec ID : S_TEXT/UTF8
Codec ID/Info : UTF-8 Plain Text
Duration : 1 h 35 min
Bit rate : 80 b/s
Count of elements : 2043
Stream size : 55.8 KiB (0%)
Title : Full
Language : English
Default : No
Forced : No

Menu
00:00:00.000 : en:Chapter 01
00:11:44.746 : en:Chapter 02
00:23:32.453 : en:Chapter 03
00:31:09.785 : en:Chapter 04
00:40:53.368 : en:Chapter 05
00:53:48.392 : en:Chapter 06
01:03:05.532 : en:Chapter 07
01:16:07.688 : en:Chapter 08
01:25:13.608 : en:Chapter 09
01:32:10.900 : en:Chapter 10


Релиз от: Автор релиза:


_________________
Проголосуй за трекер Открытый торрент трекер - RUS-MEDIA.ORG

Проголосуй Открытый торрент трекер - RUS-MEDIA.ORG


Вернуться к началу
 Профиль Отправить личное сообщение  
 
   Похожие торренты   Автор   Торрент   Размер 
В этой теме нет новых непрочитанных сообщений. ЛЕГО Ниндзяго Фильм / The LEGO Ninjago Movie [Мультфильм, боевик, комедия, 2017] BDRemux 1080p, Dub [Лицензия]

salma3

0 | 0

18.58 ГБ

В этой теме нет новых непрочитанных сообщений. ЛЕГО Ниндзяго Фильм / The LEGO Ninjago Movie [Мультфильм, боевик, комедия, 2017] BDRip 720p, Dub [Лицензия]

salma3

0 | 0

3.83 ГБ

В этой теме нет новых непрочитанных сообщений. ЛЕГО Ниндзяго Фильм / The LEGO Ninjago Movie [Мультфильм, боевик, комедия, 2017] BDRemux 1080p, Dub [Лицензия] [3D-Video]

salma3

0 | 0

25.93 ГБ

В этой теме нет новых непрочитанных сообщений. ЛЕГО Ниндзяго Фильм / The LEGO Ninjago Movie [Мультфильм, боевик, комедия, семейный, 2017] BDRip, Dub [iTunes]

salma3

1209 | 122

1.42 ГБ

В этой теме нет новых непрочитанных сообщений. Мастер - Лего Ниндзяго / The Master - A Lego Ninjago Short [мультфильм, короткометражка, боевик, 2016] BDRip 720p, Dub

salma3

33 | 10

195.48 МБ

В этой теме нет новых непрочитанных сообщений. Лего Фильм: Бэтмен / The LEGO Batman Movie [Мультфильм, фэнтези, боевик, 2017] BDRemux 1080p, Dub [Лицензия]

salma3

77 | 17

17.96 ГБ

В этой теме нет новых непрочитанных сообщений. Лего Фильм: Бэтмен / The LEGO Batman Movie [Мультфильм, фэнтези, боевик, 2017] Blu-Ray CEE 1080p, Dub [3D-Video] [Лицензия]

salma3

25 | 33

35.05 ГБ


СообщениеДобавлено: 18 янв 2018, 11:53 

Не в сети
Супермодератор
Аватара пользователя
Дата регистрации:
15 фев 2012, 16:44
Возраст: 28
Спасибо: 7223 / 2147
Сообщения: 67717
salma3 писал(а):
Re: ЛЕГО Ниндзяго Фильм / The LEGO Ninjago Movie [Мультфильм, боевик, комедия, 2017] BDRip 1080p, Dub [Лицензия]

_________________
Проголосуй за трекер Открытый торрент трекер - RUS-MEDIA.ORG

Проголосуй Открытый торрент трекер - RUS-MEDIA.ORG


Вернуться к началу
 Профиль Отправить личное сообщение  
 
Начать новую тему Ответить на тему  [ Сообщений: 2 ] 




Для Мосгорсуда, Роскомнадзора и рекламодателей:: mosgorsud-torrent[собачка]yandex.ru
cron