Торрент файл
скачать торрент магнет ссылка Добавлен: 04 май 2017, 12:01
Размер: 1.74 ГБ
Сидеров: 52
Личеров: 20
Статус: (salma3)
Автор

СообщениеДобавлено: 04 май 2017, 12:01 

Не в сети
Супермодератор
Аватара пользователя
Дата регистрации:
15 фев 2012, 16:44
Возраст: 28
Спасибо: 7285 / 2147
Сообщения: 70380
Год выхода: 2009
Жанр: мультфильм, фантастика, боевик
Режиссер: Роб Леттерман и Конрад Вернон

В ролях: Риз Уизерспун, Сет Роген, Хью Лори, Уилл Арнетт, Кифер Сазерленд, Рэйн Уилсон, Стефен Колбер, Пол Радд, Джули Уайт, Джефри Тэмбор

О фильме:
В Сюзан Мёрфи, девушку из Калифорнии, прямо в день ее свадьбы попадает метеорит, полный всякой дряни из космоса, в результате чего она вдруг начинает расти и вырастает до пятнадцати метров. Встревоженные появлением нового монстра, военные сразу берутся за дело: Сюзан отлавливают и увозят на секретную правительственную базу. Там её переименовывают в Гигантику и запирают вместе с другими монстрами: гениальным, но насекомоголовым доктором наук Тараканом; брутальным рыбочеловеком по кличке Недостающее Звено; желеподобным и неубиваемым Б. О. Бом и стометровым Насекомозавром. Правда, их тюремное заключение длится недолго: на Землю нападает инопланетный робот, и отчаявшийся Президент, поддавшись уговорам генерала Воякера, отправляет разношерстную команду монстров на спасение планеты от неминуемой гибели.



Страна: США
Продолжительность: 01:34:22
Перевод: Профессиональный (полное дублирование)

Файл
Кодек: H264
Качество: BDRip-AVC
Видео: 1 947 kb/s, 1024x436, high L4.1, yuv420p
Звук: Russian, ac3, 48000 Hz, 5.1, 640 kb/s
Субтитры: нет

•«Монстры против пришельцев» — первый фильм студии DreamWorks, снятый полностью в формате 3D при помощи технологии InTru™ 3D, сочетающей новейшие инструменты DreamWorks Animation с последними разработками Intel.
•Имя одного из героев, Б. О. Б., расшифровывается как «бензоат — остилизин — бикарбонат».
•Отношения между генералом и президентом своего рода дань уважения авторов творчеству Стэнли Кубрика, и в частности его картине «Доктор Стрейнджлав», что особенно заметно в сценах на командном пункте.
•При создании эпизодов, действие которых разворачивается в Сан-Франциско, на авторов повлияли знаменитые кинопогони из фильма «Детектив Буллит» и сериала «Улицы Сан-Франциско». Режиссерам хотелось, чтобы эти сцены выглядели скорее как художественный фильм, чем как анимация.
•Для того, чтобы правдоподобно изобразить сцену, в которой Сюзан убегает от инопланетного робота, был создан пенопластовый макет Сан-Франциско, по которому пустили бегать Лине Андерсон — аниматора проекта, чье тело очертаниями напоминает тело Сюзан.
•В сцене обращения Галактозара к людям в Токио в левом углу можно заметить экран на здании, на нем показывают мультфильм «Мадагаскар».
•У генерала на правой стороне мундира вместо орденов и медалей висит значок Шрека.
•Во время работы над «Монстрами» создано около 100 терабайт дискового пространства для хранения данных, обработано более 30 эпизодов, на исполнение которых посредством одного компьютера ушло бы более 1000 лет, снят взрыв в одной из батальных сцен, для чего потребовалось более трех терабайт дискового пространства.
•Фраза инопланетянина — «ничего личного, это просто бизнес» — это отсылка к известному выражению американского гангстера Аль Капоне.
General
Unique ID : 291681618419181134745316003853874578155 (0xDB6FD618AE04BB16A9F76E34689D42EB)
Complete name : D:11111111111111Монстры против пришельцев.2009.BDRip-AVC.mkv
Format : Matroska
Format version : Version 4 / Version 2
File size : 1.74 GiB
Duration : 1 h 34 min
Overall bit rate : 2 640 kb/s
Encoded date : UTC 2017-05-03 05:06:44
Writing application : Lavf57.57.100
Writing library : Lavf57.57.100 / Lavf57.57.100
ErrorDetectionType : Per level 1
Video
ID : 1
Format : AVC
Format/Info : Advanced Video Codec
Format profile : [email protected]
Format settings, CABAC : Yes
Format settings, ReFrames : 2 frames
Codec ID : V_MPEG4/ISO/AVC
Duration : 1 h 34 min
Bit rate : 1 947 kb/s
Width : 1 024 pixels
Height : 436 pixels
Display aspect ratio : 2.35:1
Frame rate mode : Constant
Frame rate : 23.976 (24000/1001) FPS
Color space : YUV
Chroma subsampling : 4:2:0
Bit depth : 8 bits
Scan type : Progressive
Bits/(Pixel*Frame) : 0.182
Stream size : 1.28 GiB (74%)
Writing library : Lavc57.66.101 nvenc_h264
Language : English
Default : No
Forced : No
DURATION : 01:34:21.707000000
Audio
ID : 2
Format : AC-3
Format/Info : Audio Coding 3
Format settings, Endianness : Big
Codec ID : A_AC3
Duration : 1 h 34 min
Bit rate mode : Constant
Bit rate : 640 kb/s
Channel(s) : 6 channels
Channel positions : Front: L C R, Side: L R, LFE
Sampling rate : 48.0 kHz
Frame rate : 31.250 FPS (1536 spf)
Bit depth : 16 bits
Compression mode : Lossy
Stream size : 432 MiB (24%)
Language : Russian
Service kind : Complete Main
Default : Yes
Forced : No
DURATION : 01:34:21.696000000
Menu
00:00:00.000 : :Глава 01
00:10:00.000 : :Глава 02
00:20:00.000 : :Глава 03
00:30:00.000 : :Глава 04
00:40:00.000 : :Глава 05
00:50:00.000 : :Глава 06
01:00:00.000 : :Глава 07
01:10:00.000 : :Глава 08
01:20:00.000 : :Глава 09
01:30:00.000 : :Глава 10


_________________
Проголосуй за трекер Открытый торрент трекер - RUS-MEDIA.ORG

Проголосуй Открытый торрент трекер - RUS-MEDIA.ORG


Вернуться к началу
 Профиль Отправить личное сообщение  
 
   Похожие торренты   Автор   Торрент   Размер 
В этой теме нет новых непрочитанных сообщений. Лига справедливости: Боги и монстры / Justice League: Gods and Monsters (Сэм Лью) [боевик, мультфильм, 2015] BDRip, Mvo

Dracon

794 | 69

1.45 ГБ

В этой теме нет новых непрочитанных сообщений. Чужие / Aliens [ужасы, фантастика, боевик, 1986] BDRip, Dub [Специальное издание]

salma3

23 | 7

1.46 ГБ

В этой теме нет новых непрочитанных сообщений. Монстры на свободе / Monsters at Large [Семейный, 2018] WEB-DLRip, Mvo

salma3

69 | 2

1.37 ГБ

В этой теме нет новых непрочитанных сообщений. Монстры на свободе / Monsters at Large [Семейный, 2018] WEBRip, Dvo

salma3

10 | 1

1.34 ГБ

В этой теме нет новых непрочитанных сообщений. Боги и монстры / Gods and Monsters [Драма, биография, 1998] WEB-DLRip, Mvo

salma3

31 | 1

1.46 ГБ

В этой теме нет новых непрочитанных сообщений. Монстры на свободе / Monsters at Large [Семейный, 2018] WEBRip 720p, Dvo

salma3

2 | 0

3.17 ГБ

В этой теме нет новых непрочитанных сообщений. Чужие / Aliens [ужасы, фантастика, боевик, триллер, 1986] BDRip-HEVC 1080p, Dub [Special Edition]

salma3

17 | 7

20.59 ГБ


Начать новую тему Ответить на тему  [ 1 сообщение ] 




Для Мосгорсуда, Роскомнадзора и рекламодателей:: mosgorsud-torrent[собачка]yandex.ru
cron