Торрент файл
скачать торрент магнет ссылка Добавлен: 21 фев 2017, 16:49
Размер: 1.5 ГБ
Сидеров: 32
Личеров: 13
Автор

СообщениеДобавлено: 21 фев 2017, 16:49 

Не в сети
Дата регистрации:
28 сен 2016, 18:10
Спасибо: 216 / 0
Сообщения: 1997
Информация о фильме
Название: Время приключений (Пора приключений)
Оригинальное название: Adventure Time
Год выхода: 2017
Страна: США, Cartoon Network
Жанр: Мультсериал, приключения, фэнтези, комедия
Продолжительность: ~ 00:22:15
Сезон: 8
Эпизоды: 01-07
Перевод: Любительский (двухголосый закадровый) | Т.О Друзей
Режиссер: Ларри Лэйчлитер / Larry Leichliter
Роли озвучивали: Джон Ди Маджио, Джереми Шэда, Том Кенни, Хинден Уолш, Ники Янг, Пендлтон Уорд, Ди Брэдли Бейкер, Мария Бэмфорд, Стив Литтл, Оливия Олсон, ...
О фильме: Сериал повествует о необыкновенных и весёлых приключениях двух лучших друзей: мальчика Финна и его собаки Джейка. Действие сериала происходит в волшебной стране Ууу. Финн — 13-летний мальчик, который обожает путешествовать и спасать принцесс из лап ужасных монстров и злодеев, населяющих Землю Ууу. Джейк — лучший друг Финна. Это волшебная собака со способностью растягивать своё тело до практически любых размеров и форм. Джейку 28 лет и он исполняет роль эдакого приятеля-наставника Финна, а его волшебные способности помогают мальчику в его борьбе со злом.
Сезон 8
s8e01. Два меча +Не навреди
s8e02. Колёса + Повышенная Странность
s8e03. Конь и мяч + У желейных бобов есть сила
s8e04. Острова 1: Приглашение + Острова 2: Счастливый Дракон Уиппл
s8e05. Острова 3: Таинственный Остров + Острова 4: Воображаемые ресурсы
s8e06. Острова 5: Прятки + Острова 6: Мин и Марти
s8e07. Острова 7: Помощники + Острова 8: Светлое облако



Доп. информация:
Семпл


Файл
Формат: AVI
Качество: WEB-DLRip
Видео: 720x400 (1.80:1), 23.976 fps, XviD build 73 ~1178 kbps avg, 0.17 bit/pixel
Звук: 48 kHz, AC3 Dolby Digital, 2/0 (L,R) ch, ~192.00 kbps avg
s8e05. О-3. Таинственный Остров + О-4. Воображаемые ресурсы. XviD-merci-.avi
Format : AVI
Format/Info : Audio Video Interleave
File size : 220 MiB
Duration : 22 min 15 s
Overall bit rate : 1 380 kb/s
Writing application : VirtualDubMod 1.5.10.3 | www.virtualdub-fr.org || (build 2550/release)
Writing library : VirtualDubMod build 2550/release
Video
ID : 0
Format : MPEG-4 Visual
Format profile : Advanced [email protected]
Format settings, BVOP : 1
Format settings, QPel : No
Format settings, GMC : No warppoints
Format settings, Matrix : Default (MPEG)
Codec ID : XVID
Codec ID/Hint : XviD
Duration : 22 min 15 s
Bit rate : 1 178 kb/s
Width : 720 pixels
Height : 400 pixels
Display aspect ratio : 16:9
Frame rate : 23.976 (24000/1001) FPS
Color space : YUV
Chroma subsampling : 4:2:0
Bit depth : 8 bits
Scan type : Progressive
Compression mode : Lossy
Bits/(Pixel*Frame) : 0.171
Stream size : 188 MiB (85%)
Writing library : XviD 73
Audio
ID : 1
Format : AC-3
Format/Info : Audio Coding 3
Mode extension : CM (complete main)
Format settings, Endianness : Big
Codec ID : 2000
Duration : 22 min 15 s
Bit rate mode : Constant
Bit rate : 192 kb/s
Channel(s) : 2 channels
Channel positions : Front: L R
Sampling rate : 48.0 kHz
Frame rate : 31.250 FPS (1536 spf)
Bit depth : 16 bits
Compression mode : Lossy
Stream size : 30.6 MiB (14%)
Alignment : Split accross interleaves
Interleave, duration : 42 ms (1.00 video frame)
Interleave, preload duratio : 500 ms


Релиз от:
Автор релиза: /



Вернуться к началу
 Профиль Отправить личное сообщение  
 
   Похожие торренты   Автор   Торрент   Размер 
В этой теме нет новых непрочитанных сообщений. Три кота [01-38] ( Мультсериал, детский, приключения, комедия, 2015-2016) WEB-DLRip от ExKinoRay

marya111

49 | 11

2.21 ГБ

В этой теме нет новых непрочитанных сообщений. Три кота [01-38] (Мультсериал, детский, приключения, комедия, 2015-2016) WEB-DLRip 720p от ExKinoRay

marya111

120 | 37

1.55 ГБ

В этой теме нет новых непрочитанных сообщений. Три кота [01-39] ( Мультсериал, детский, приключения, комедия, 2015-2016) WEB-DLRip 720p от ExKinoRay

marya111

79 | 13

1.6 ГБ

В этой теме нет новых непрочитанных сообщений. Тима и Тома [01-41] (Мультсериал, рисованный, детский, комедия, приключения, 2015-2016) WEB-DLRip от ExKinoRay

marya111

51 | 12

2 ГБ

В этой теме нет новых непрочитанных сообщений. Буба (booba) [1-15 + Бонусы] (Мультсериал, детский, приключения, комедия, 2014-2016) WEB-DLRip 1080p от ExKinoRay

marya111

120 | 12

1.08 ГБ

В этой теме нет новых непрочитанных сообщений. Стар против Сил Зла / Star vs the Forces of Evil [s02] (Фантастика, комедия, приключения, мультсериал, 2016) WEB-DLRip от ExKinoRay | L2

marya111

29 | 33

3.9 ГБ

В этой теме нет новых непрочитанных сообщений. Стар против Сил Зла / Star vs the Forces of Evil [s01] (Фантастика, комедия, приключения, мультсериал, 2015) WEB-DLRip от ExKinoRay | L2

marya111

0 | 0

3.5 ГБ


Начать новую тему Ответить на тему  [ 1 сообщение ] 




Для Мосгорсуда, Роскомнадзора и рекламодателей:: mosgorsud-torrent[собачка]yandex.ru
cron