Торрент файл
скачать торрент магнет ссылка Добавлен: 11 июл 2018, 22:42
Размер: 18.53 ГБ
Сидеров: 0
Личеров: 0
Статус: (salma3)
Автор

СообщениеДобавлено: 11 июл 2018, 22:42 

Не в сети
Супермодератор
Аватара пользователя
Дата регистрации:
15 фев 2012, 16:44
Возраст: 28
Спасибо: 7223 / 2147
Сообщения: 67788
Год выхода: 1982
Жанр: ужасы, триллер, криминал
Режиссер: Дик Ричардс

В ролях: Пол Ле Мэт, Кэтрин Хикс, Стивен МакХэтти, Уилфорд Бримли, Питер Биллингсли, Эдвард Херрманн, Джек О’Лири, Мэри Стилсмит, Джина Кристиан, Кирк Коскелла, Фрэнк Дж. Чирнорелли, Арнольд С. Ватерман, Фред В.С. Ньютон, Дж.П.С. Браун, Рой Гансберг, Эрл В. Смит и др.

О фильме: Десятилетний Билли отправился на отдых в Аризону со своей мамой. Вместе с ними поехал и новый мамин любовник. Вместе они случайно становятся свидетелями убийств, совершенных загадочным маньяком в долине, известной как Долина Смерти.



Страна: США
Продолжительность: 01:28:06
Перевод: Любительский (одноголосый закадровый) Максим Логинофф
Субтитры: английские

Файл
Качество: BDRemux 1080p
Видео: MPEG-4 AVC / 1920x1080 / 16:9 / 23.976 fps / 26248 kbps
Аудио 1: Russian / AC3 / 48.0 KHz / 2.0 / 192 kbps / Максим Логинофф
Аудио 2: English / DTS-HD MA / 48.0 KHz / 5.1 / 3438 kbps / 24 bit (DTS Core 48.0 KHz / 5.1 / 1509 kbps / 24 bit)
Аудио 3: English / AC3 / 48.0 KHz / 2.0 / 224 kbps / Commentary by director Dick Richards

Общее
Уникальный идентификатор : 39423702657887089586502395011592947383 (0x1DA8BA9C40FB77CF4AC0B79B3A7506B7)
Полное имя : Death.Valley.1982.BDRemux.1080p.mkv
Формат : Matroska
Версия формата : Version 4 / Version 2
Размер файла : 18,5 Гбайт
Продолжительность : 1 ч. 28 м.
Режим общего битрейта : Переменный
Общий поток : 30,1 Мбит/сек
Название фильма : Death.Valley.1982.BDRemux.1080p-porvaliparus
Дата кодирования : UTC 2018-07-09 03:25:50
Программа кодирования : mkvmerge v24.0.0 ('Beyond The Pale') 64-bit
Библиотека кодирования : libebml v1.3.6 + libmatroska v1.4.9

Видео
Идентификатор : 1
Формат : AVC
Формат/Информация : Advanced Video Codec
Профиль формата : [email protected]
Настройки формата : CABAC / 3 Ref Frames
Параметр CABAC формата : Да
Параметр RefFrames формата : 3 кадра
Параметр GOP формата : M=3, N=12
Идентификатор кодека : V_MPEG4/ISO/AVC
Продолжительность : 1 ч. 28 м.
Вид битрейта : Переменный
Битрейт : 26,2 Мбит/сек
Максимальный битрейт : 35,0 Мбит/сек
Ширина : 1920 пикселей
Высота : 1080 пикселей
Соотношение сторон : 16:9
Режим частоты кадров : Постоянный
Частота кадров : 23,976 (24000/1001) кадра/сек
Стандарт вещания : NTSC
Цветовое пространство : YUV
Субдискретизация насыщенности : 4:2:0
Битовая глубина : 8 бит
Тип развёртки : Прогрессивная
Бит/(Пиксели*Кадры) : 0.528
Размер потока : 16,2 Гбайт (87%)
Заголовок : Death.Valley.1982.BDRemux.1080p
Default : Да
Forced : Нет
Цветовой диапазон : Limited
Основные цвета : BT.709
Характеристики трансфера : BT.709
Коэффициенты матрицы : BT.709

Аудио #1
Идентификатор : 2
Формат : AC-3
Формат/Информация : Audio Coding 3
Идентификатор кодека : A_AC3
Продолжительность : 1 ч. 28 м.
Вид битрейта : Постоянный
Битрейт : 192 Кбит/сек
Каналы : 2 канала
Расположение каналов : Front: L R
Частота : 48,0 КГц
Частота кадров : 31,250 кадров/сек (1536 SPF)
Битовая глубина : 16 бит
Метод сжатия : С потерями
Размер потока : 121 Мбайт (1%)
Заголовок : М. Логинофф
Язык : Russian
Default : Да
Forced : Нет

Аудио #2
Идентификатор : 3
Формат : DTS
Формат/Информация : Digital Theater Systems
Профиль формата : MA / Core
Идентификатор кодека : A_DTS
Продолжительность : 1 ч. 28 м.
Вид битрейта : Переменный / Постоянный
Битрейт : 3438 Кбит/сек / 1509 Кбит/сек
Каналы : 6 каналов
Расположение каналов : Front: L C R, Side: L R, LFE
Частота : 48,0 КГц
Частота кадров : 93,750 кадра/сек (512 SPF)
Битовая глубина : 24 бит
Метод сжатия : Без потерь / Lossy
Размер потока : 2,11 Гбайт (11%)
Язык : English
Default : Нет
Forced : Нет

Аудио #3
Идентификатор : 4
Формат : AC-3
Формат/Информация : Audio Coding 3
Идентификатор кодека : A_AC3
Продолжительность : 1 ч. 28 м.
Вид битрейта : Постоянный
Битрейт : 224 Кбит/сек
Каналы : 2 канала
Расположение каналов : Front: L R
Частота : 48,0 КГц
Частота кадров : 31,250 кадров/сек (1536 SPF)
Битовая глубина : 16 бит
Метод сжатия : С потерями
Размер потока : 141 Мбайт (1%)
Заголовок : Commentary by director Dick Richards
Язык : English
Default : Нет
Forced : Нет

Текст #1
Идентификатор : 5
Формат : UTF-8
Идентификатор кодека : S_TEXT/UTF8
Идентификатор кодека/Информация : UTF-8 Plain Text
Продолжительность : 1 ч. 21 м.
Битрейт : 36 бит/сек
ElementCount : 755
Размер потока : 21,7 Кбайт (0%)
Заголовок : Full
Язык : English
Default : Нет
Forced : Нет

Текст #2
Идентификатор : 6
Формат : UTF-8
Идентификатор кодека : S_TEXT/UTF8
Идентификатор кодека/Информация : UTF-8 Plain Text
Продолжительность : 1 ч. 21 м.
Битрейт : 44 бит/сек
ElementCount : 866
Размер потока : 26,5 Кбайт (0%)
Заголовок : SDH
Язык : English
Default : Нет
Forced : Нет

Меню
00:00:00.000 : en:Chapter 1
00:10:00.600 : en:Chapter 2
00:20:01.200 : en:Chapter 3
00:30:01.800 : en:Chapter 4
00:40:02.400 : en:Chapter 5
00:50:03.000 : en:Chapter 6
01:00:03.600 : en:Chapter 7
01:10:04.200 : en:Chapter 8
01:20:04.800 : en:Chapter 9


_________________
Проголосуй за трекер Открытый торрент трекер - RUS-MEDIA.ORG

Проголосуй Открытый торрент трекер - RUS-MEDIA.ORG


Вернуться к началу
 Профиль Отправить личное сообщение  
 
   Похожие торренты   Автор   Торрент   Размер 
В этой теме нет новых непрочитанных сообщений. Долина смерти / Death Valley [S01] (Дрю Дэйуолт, Остин Ридинг, Джордан Вот-Робертс) [2011, ужасы, комедия, WEB-DLRip]

Dracon

6 | 39

4.32 ГБ

В этой теме нет новых непрочитанных сообщений. Долина ям / Valley of Ditches [драма, криминал, ужасы, триллер, 2017] WEB-DLRip, Mvo

salma3

1153 | 116

1.37 ГБ

В этой теме нет новых непрочитанных сообщений. Счастливого дня смерти / Happy Death Day [Триллер, ужасы, детектив, 2017] BDRemux 1080p, Mvo

salma3

2 | 1

26.92 ГБ

В этой теме нет новых непрочитанных сообщений. Счастливого дня смерти / Happy Death Day [Триллер, ужасы, детектив, 2017] BDRemux 1080p, Mvo

salma3

1 | 142

24.3 ГБ

В этой теме нет новых непрочитанных сообщений. Счастливого дня смерти / Happy Death Day [Ужасы, триллер, детектив, 2017] BDRemux 1080p, Dub [Лицензия]

salma3

0 | 0

26.87 ГБ

В этой теме нет новых непрочитанных сообщений. Жажда смерти / Death Wish [боевик, триллер, криминал, 2018] BDRemux 1080p, Dub [Line]

salma3

78 | 158

26.96 ГБ

В этой теме нет новых непрочитанных сообщений. Долина снежного человека / Valley of the Sasquatch [ужасы, триллер, 2015] WEB-DLRip, Mvo

salma3

38 | 12

1.37 ГБ


Начать новую тему Ответить на тему  [ 1 сообщение ] 




Для Мосгорсуда, Роскомнадзора и рекламодателей:: mosgorsud-torrent[собачка]yandex.ru
cron