Торрент файл
скачать торрент магнет ссылка Добавлен: 17 июн 2018, 14:17
Размер: 8.85 ГБ
Сидеров: 0
Личеров: 0
Статус: (salma3)
Автор

СообщениеДобавлено: 17 июн 2018, 14:17 

Не в сети
Супермодератор
Аватара пользователя
Дата регистрации:
15 фев 2012, 16:44
Возраст: 28
Спасибо: 7224 / 2147
Сообщения: 67920
Год выхода: 1981
Жанр: Kомедия, боевик, спорт
Режиссер: Хэл Нидэм

В ролях: Джеки Чан, Бёрт Рейнолдс, Роджер Мур, Фарра Фосетт, Дом ДеЛуис, Дин Мартин, Сэмми Дэвис мл., Джек Илэм, Эдриенн Барбо, Терри Брэдшоу

О фильме:
Приз в кругленькую сумму получит тот из участников транснациональной автомобильной гонки, кто первым придет к финишу. Гонки, как обычно, без правил, и участвуют в них самые отчаянные и бесшабашные гонщики мира. Главное — стать первым любой ценой...



Страна: США, Гонконг
Продолжительность: 01:35:35
Перевод: Профессиональный многоголосый, профессиональный двухголосый, авторский одноголосый

Файл
Кодек: x.264
Качество: BDRip 1080p
Видео: MPEG-4 AVC, 1920x1080, 11.6 Mбит/с, 23.976 кадр/с
Звук:
Аудио #1: Русский ( АС3, 2ch, 192 Кбит/с, 48.0 KHz) Профессиональный (многоголосый, закадровый)
Аудио #2: Русский ( АС3, 2ch, 192 Кбит/с, 48.0 KHz) Профессиональный (многоголосый, закадровый) СТС
Аудио #3: Украинский ( АС3, 2ch, 192 Кбит/с, 48.0 KHz) Профессиональный (многоголосый, закадровый) ICTV
Аудио #4: Русский ( АС3, 2ch, 192 Кбит/с, 48.0 KHz) Профессиональный (двухголосый, закадровый)
Аудио #5: Русский ( АС3, 6ch, 448 Кбит/с, 48.0 KHz) Авторский (одноголосый, закадровый) Алексей Михалев
Аудио #6: Английский ( АС3, 6ch, 448 Кбит/с, 48.0 KHz)
Субтитры: aнглийские


Источник: The.Cannonball.Run.1981.1080p.BluRay.x264.DTS-FGT
General
Unique ID : 227634129483358081981689784807029666976 (0xAB40BD1718535AFCB1E8A1E39B4AF4A0)
Complete name : The.Cannonball.Run.1981.BDRip.1080p.mkv
Format : Matroska
Format version : Version 4 / Version 2
File size : 8.85 GiB
Duration : 1 h 35 min
Overall bit rate : 13.3 Mb/s
Encoded date : UTC 2018-06-16 22:43:14
Writing application : mkvmerge v7.1.0 ('Good Love') 64bit built on Jul 27 2014 13:06:55
Writing library : libebml v1.3.0 + libmatroska v1.4.1

Video
ID : 1
Format : AVC
Format/Info : Advanced Video Codec
Format profile : [email protected]
Format settings : CABAC / 4 Ref Frames
Format settings, CABAC : Yes
Format settings, ReFrames : 4 frames
Codec ID : V_MPEG4/ISO/AVC
Duration : 1 h 35 min
Bit rate : 11.6 Mb/s
Width : 1 920 pixels
Height : 1 080 pixels
Display aspect ratio : 16:9
Frame rate mode : Constant
Frame rate : 23.976 (24000/1001) FPS
Color space : YUV
Chroma subsampling : 4:2:0
Bit depth : 8 bits
Scan type : Progressive
Bits/(Pixel*Frame) : 0.233
Stream size : 7.73 GiB (87%)
Writing library : x264 core 119 r2106 07efeb4
Encoding settings : cabac=1 / ref=4 / deblock=1:-2:-2 / analyse=0x3:0x113 / me=umh / subme=9 / psy=1 / psy_rd=1.20:0.25 / mixed_ref=1 / me_range=32 / chroma_me=1 / trellis=1 / 8x8dct=1 / cqm=0 / deadzone=6,6 / fast_pskip=1 / chroma_qp_offset=-4 / threads=12 / sliced_threads=0 / nr=0 / decimate=0 / interlaced=0 / bluray_compat=0 / constrained_intra=0 / bframes=5 / b_pyramid=2 / b_adapt=2 / b_bias=0 / direct=3 / weightb=1 / open_gop=0 / weightp=2 / keyint=250 / keyint_min=1 / scenecut=60 / intra_refresh=0 / rc_lookahead=50 / rc=2pass / mbtree=1 / bitrate=11587 / ratetol=1.0 / qcomp=0.80 / qpmin=10 / qpmax=51 / qpstep=4 / cplxblur=20.0 / qblur=0.5 / vbv_maxrate=40000 / vbv_bufsize=40000 / nal_hrd=none / ip_ratio=1.10 / aq=1:0.50
Language : English
Default : Yes
Forced : No

Audio #1
ID : 2
Format : AC-3
Format/Info : Audio Coding 3
Codec ID : A_AC3
Duration : 1 h 35 min
Bit rate mode : Constant
Bit rate : 192 kb/s
Channel(s) : 2 channels
Channel positions : Front: L R
Sampling rate : 48.0 kHz
Frame rate : 31.250 FPS (1536 SPF)
Bit depth : 16 bits
Compression mode : Lossy
Stream size : 131 MiB (1%)
Title : MVO
Language : Russian
Service kind : Complete Main
Default : Yes
Forced : No

Audio #2
ID : 3
Format : AC-3
Format/Info : Audio Coding 3
Codec ID : A_AC3
Duration : 1 h 35 min
Bit rate mode : Constant
Bit rate : 192 kb/s
Channel(s) : 2 channels
Channel positions : Front: L R
Sampling rate : 48.0 kHz
Frame rate : 31.250 FPS (1536 SPF)
Bit depth : 16 bits
Compression mode : Lossy
Stream size : 131 MiB (1%)
Title : MVO (СТС)
Language : Russian
Service kind : Complete Main
Default : No
Forced : No

Audio #3
ID : 4
Format : AC-3
Format/Info : Audio Coding 3
Codec ID : A_AC3
Duration : 1 h 35 min
Bit rate mode : Constant
Bit rate : 192 kb/s
Channel(s) : 2 channels
Channel positions : Front: L R
Sampling rate : 48.0 kHz
Frame rate : 31.250 FPS (1536 SPF)
Bit depth : 16 bits
Compression mode : Lossy
Stream size : 131 MiB (1%)
Title : MVO (UKR)
Language : Ukrainian
Service kind : Complete Main
Default : No
Forced : No

Audio #4
ID : 5
Format : AC-3
Format/Info : Audio Coding 3
Codec ID : A_AC3
Duration : 1 h 35 min
Bit rate mode : Constant
Bit rate : 192 kb/s
Channel(s) : 2 channels
Channel positions : Front: L R
Sampling rate : 48.0 kHz
Frame rate : 31.250 FPS (1536 SPF)
Bit depth : 16 bits
Compression mode : Lossy
Stream size : 131 MiB (1%)
Title : DVO
Language : Russian
Service kind : Complete Main
Default : No
Forced : No

Audio #5
ID : 6
Format : AC-3
Format/Info : Audio Coding 3
Codec ID : A_AC3
Duration : 1 h 35 min
Bit rate mode : Constant
Bit rate : 448 kb/s
Channel(s) : 6 channels
Channel positions : Front: L C R, Side: L R, LFE
Sampling rate : 48.0 kHz
Frame rate : 31.250 FPS (1536 SPF)
Bit depth : 16 bits
Compression mode : Lossy
Stream size : 306 MiB (3%)
Title : AVO (Алексей Михалёв)
Language : Russian
Service kind : Complete Main
Default : No
Forced : No

Audio #6
ID : 7
Format : AC-3
Format/Info : Audio Coding 3
Codec ID : A_AC3
Duration : 1 h 35 min
Bit rate mode : Constant
Bit rate : 448 kb/s
Channel(s) : 6 channels
Channel positions : Front: L C R, Side: L R, LFE
Sampling rate : 48.0 kHz
Frame rate : 31.250 FPS (1536 SPF)
Bit depth : 16 bits
Compression mode : Lossy
Stream size : 306 MiB (3%)
Language : English
Service kind : Complete Main
Default : No
Forced : No

Text
ID : 8
Format : UTF-8
Codec ID : S_TEXT/UTF8
Codec ID/Info : UTF-8 Plain Text
Duration : 1 h 35 min
Bit rate : 74 b/s
Count of elements : 1510
Stream size : 51.9 KiB (0%)
Language : English
Default : No
Forced : No

Menu #1
00:00:00.000 : en:00:00:00.000
00:08:10.115 : en:00:08:10.115
00:16:56.515 : en:00:16:56.515
00:23:31.619 : en:00:23:31.619
00:31:41.775 : en:00:31:41.775
00:42:56.491 : en:00:42:56.491
00:52:17.176 : en:00:52:17.176
01:02:39.839 : en:01:02:39.839
01:09:48.893 : en:01:09:48.893
01:16:45.684 : en:01:16:45.684
01:25:53.690 : en:01:25:53.690
01:32:13.695 : en:01:32:13.695

Menu #2
00:00:00.000 : en:00:00:00.000
00:08:10.115 : en:00:08:10.115
00:16:56.515 : en:00:16:56.515
00:23:31.619 : en:00:23:31.619
00:31:41.775 : en:00:31:41.775
00:42:56.491 : en:00:42:56.491
00:52:17.176 : en:00:52:17.176
01:02:39.839 : en:01:02:39.839
01:09:48.893 : en:01:09:48.893
01:16:45.684 : en:01:16:45.684
01:25:53.690 : en:01:25:53.690
01:32:13.695 : en:01:32:13.695



_________________
Проголосуй за трекер Открытый торрент трекер - RUS-MEDIA.ORG

Проголосуй Открытый торрент трекер - RUS-MEDIA.ORG


Вернуться к началу
 Профиль Отправить личное сообщение  
 
   Похожие торренты   Автор   Торрент   Размер 
В этой теме нет новых непрочитанных сообщений. Гонки «Пушечное ядро» / The Cannonball Run [боевик, комедия, 1981] BDRip 720p, Mvo

salma3

0 | 0

4.37 ГБ

В этой теме нет новых непрочитанных сообщений. Непобедимый дикарь / The Air Up There [Kомедия, семейный, спорт, 1994] WEBRip 1080p, Dvo

salma3

0 | 0

10.18 ГБ

В этой теме нет новых непрочитанных сообщений. Смертельные гонки 2000 года / Death Race 2000 [фантастика, боевик, комедия, спорт, 1975] BDRip-AVC, Avo

salma3

28 | 11

2.1 ГБ

В этой теме нет новых непрочитанных сообщений. Око за око / An Eye For An Eye [Боевик. 1981] BDRip 1080p, Mvo+Avo

salma3

27 | 40

12.34 ГБ

В этой теме нет новых непрочитанных сообщений. Скандинавский форсаж: Гонки на льду / Børning 2 [боевик, комедия, 2016] BDRip 1080p, Mvo+Sub [iTunes]

salma3

109 | 46

9.85 ГБ

В этой теме нет новых непрочитанных сообщений. Сила пятерых / Force: Five [Боевик, драма, приключения, 1981] BDRip 1080p, Avo

salma3

86 | 40

7.73 ГБ

В этой теме нет новых непрочитанных сообщений. Побег из Нью-Йорка / Escape from New York [Боевик, фантастика, 1981] BDRip 1080p, Mvo

salma3

32 | 30

9.92 ГБ


Начать новую тему Ответить на тему  [ 1 сообщение ] 




Для Мосгорсуда, Роскомнадзора и рекламодателей:: mosgorsud-torrent[собачка]yandex.ru
cron