Торрент файл
скачать торрент магнет ссылка Добавлен: 13 июн 2018, 17:04
Размер: 8.27 ГБ
Сидеров: 0
Личеров: 0
Статус: (salma3)
Автор

СообщениеДобавлено: 13 июн 2018, 17:04 

Не в сети
Супермодератор
Аватара пользователя
Дата регистрации:
15 фев 2012, 16:44
Возраст: 28
Спасибо: 7290 / 2147
Сообщения: 70618
Год выпуска: 1989
Выпущено: США, Lightning Pictures, Planet Productions
Жанр: Триллер
Режиссер: Мейерт Эйвис

В ролях: Дрю Бэрримор, Мэтт Фрюэр, Ричард Мэсур, Карен Остин, Сьюзен Тайррелл, Андрас Джонс, Дик Миллер, Энтони Рэпп, Конни Сойер, Дженнифер Тилли, Стефани Вальски, Муррилл Мальо, Тери Вейгель, Джон Спенсер

О фильме: Знойная пустыня в штате Невада. Самый разгар дневной жары. А в машине Чарли Кросса, путешествующего по национальным паркам Америки вместе с дочерью Джолин, заканчивается бензин. Кое-как дотянув до ближайшего городка, они находят заправку. Но бензина нет и там. Им приходится остановиться на ночевку в парке трейлеров, где в Джолин влюбляются сразу двое молодых людей. А тем временем в городке происходит серия странных убийств, и Джолин оказывается в самом центре опасного водоворота, из которого может и не выбраться. Но настоящий ужас еще только начинается…

Продолжительность: 01:29:11
Перевод: Профессиональный многоголосый
Субтитры: Русские, английские
Навигация по главам: Есть

Файл
Качество: WEB-DL 1080p
Видео: MPEG-4 AVC, 12,6 Мбит/сек, 1920x1040, 23,976 кадра/сек
Аудио #1: AC3, 2 ch, 224 Кбит/сек | Русский, профессиональный (многоголосый закадровый)
Аудио #2: EAC3, 2 ch, 224 Кбит/сек | Английский, оригинал




Общее
Уникальный идентификатор : 183449748805799459577037237181119963072 (0x8A0322EE7CF84110A1860A53515B9FC0)
Полное имя : Вдали.от.дома.1989.WEB-DL.1080p.mkv
Формат : Matroska
Версия формата : Version 2
Размер файла : 8,27 Гбайт
Продолжительность : 1 ч. 29 м.
Режим общего битрейта : Переменный
Общий поток : 13,3 Мбит/сек
Дата кодирования : UTC 2018-06-12 10:08:57
Программа кодирования : mkvmerge v5.8.0 ('No Sleep / Pillow') built on Sep 2 2012 15:37:04
Библиотека кодирования : libebml v1.2.3 + libmatroska v1.3.0

Видео
Идентификатор : 1
Формат : AVC
Формат/Информация : Advanced Video Codec
Профиль формата : [email protected]
Настройки формата : CABAC / 4 Ref Frames
Параметр CABAC формата : Да
Параметр RefFrames формата : 4 кадра
Идентификатор кодека : V_MPEG4/ISO/AVC
Продолжительность : 1 ч. 29 м.
Вид битрейта : Переменный
Битрейт : 12,6 Мбит/сек
Максимальный битрейт : 15,0 Мбит/сек
Ширина : 1920 пикселей
Высота : 1040 пикселей
Соотношение сторон : 1,85:1
Режим частоты кадров : Постоянный
Частота кадров : 23,976 (24000/1001) кадра/сек
Цветовое пространство : YUV
Субдискретизация насыщенности : 4:2:0
Битовая глубина : 8 бит
Тип развёртки : Прогрессивная
Бит/(Пиксели*Кадры) : 0.263
Размер потока : 7,83 Гбайт (95%)
Библиотека кодирования : x264 core 148 r2623 d5b2374
Настройки программы : cabac=1 / ref=4 / deblock=1:-1:-1 / analyse=0x3:0x133 / me=umh / subme=9 / psy=1 / psy_rd=1.00:0.15 / mixed_ref=1 / me_range=24 / chroma_me=1 / trellis=2 / 8x8dct=1 / cqm=0 / deadzone=21,11 / fast_pskip=1 / chroma_qp_offset=-3 / threads=32 / lookahead_threads=5 / sliced_threads=0 / nr=150 / decimate=1 / interlaced=0 / bluray_compat=0 / constrained_intra=0 / bframes=8 / b_pyramid=2 / b_adapt=2 / b_bias=0 / direct=3 / weightb=1 / open_gop=0 / weightp=2 / keyint=120 / keyint_min=61 / scenecut=0 / intra_refresh=0 / rc_lookahead=120 / rc=crf / mbtree=1 / crf=18.0 / qcomp=0.60 / qpmin=0 / qpmax=69 / qpstep=4 / vbv_maxrate=15000 / vbv_bufsize=31250 / crf_max=0.0 / nal_hrd=vbr / filler=0 / ip_ratio=1.40 / aq=3:1.00
Язык : English
Default : Да
Forced : Нет
Цветовой диапазон : Limited
Основные цвета : BT.709
Характеристики трансфера : BT.709
Коэффициенты матрицы : BT.709

Аудио #1
Идентификатор : 2
Формат : AC-3
Формат/Информация : Audio Coding 3
Идентификатор кодека : A_AC3
Продолжительность : 1 ч. 29 м.
Вид битрейта : Постоянный
Битрейт : 224 Кбит/сек
Каналы : 2 канала
Расположение каналов : Front: L R
Частота : 48,0 КГц
Частота кадров : 31,250 кадров/сек (1536 SPF)
Битовая глубина : 16 бит
Метод сжатия : С потерями
Размер потока : 143 Мбайт (2%)
Заголовок : MVO
Язык : Russian
По умолчанию : Да
Принудительно : Нет

Аудио #2
Идентификатор : 3
Формат : E-AC-3
Формат/Информация : Enhanced Audio Coding 3
Идентификатор кодека : A_EAC3
Продолжительность : 1 ч. 29 м.
Вид битрейта : Постоянный
Битрейт : 224 Кбит/сек
Каналы : 2 канала
Расположение каналов : Front: L R
Частота : 48,0 КГц
Частота кадров : 187,500 кадров/сек (256 SPF)
Метод сжатия : С потерями
Размер потока : 143 Мбайт (2%)
Заголовок : Original
Язык : English
По умолчанию : Нет
Принудительно : Нет

Текст #1
Идентификатор : 4
Формат : UTF-8
Идентификатор кодека : S_TEXT/UTF8
Идентификатор кодека/Информация : UTF-8 Plain Text
Язык : Russian
По умолчанию : Нет
Принудительно : Нет

Текст #2
Идентификатор : 5
Формат : UTF-8
Идентификатор кодека : S_TEXT/UTF8
Идентификатор кодека/Информация : UTF-8 Plain Text
Язык : English
По умолчанию : Нет
Принудительно : Нет

Меню
00:00:00.000 : en:Chapter 01
00:11:35.750 : en:Chapter 02
00:21:49.864 : en:Chapter 03
00:32:36.343 : en:Chapter 04
00:44:35.311 : en:Chapter 05
00:56:51.004 : en:Chapter 06
01:08:51.099 : en:Chapter 07
01:19:54.512 : en:Chapter 08

• Исходник видео WEB-DL Amazon.

Сборка:


_________________
Проголосуй за трекер Открытый торрент трекер - RUS-MEDIA.ORG

Проголосуй Открытый торрент трекер - RUS-MEDIA.ORG


Вернуться к началу
 Профиль Отправить личное сообщение  
 
   Похожие торренты   Автор   Торрент   Размер 
В этой теме нет новых непрочитанных сообщений. Вдали от дома / Far from Home [Триллер, 1989] WEB-DLRip, Mvo

salma3

0 | 0

1.39 ГБ

В этой теме нет новых непрочитанных сообщений. Вдали от дома / Far from Home [Триллер, 1989] WEB-DLRip 720p, Mvo

salma3

0 | 0

3.72 ГБ

В этой теме нет новых непрочитанных сообщений. Вдали от дома: Приключения жёлтого пса / Far from Home: The Adventures of Yellow Dog [Приключения, семейный, 1995] WEB-DL 1080p, Mvo

salma3

0 | 0

7.98 ГБ

В этой теме нет новых непрочитанных сообщений. Вдали от дома / Miles from Home [Криминальная драма, 1988] HDTVRip 720p, Dvo

salma3

0 | 0

2.68 ГБ

В этой теме нет новых непрочитанных сообщений. Вдали от дома: Приключения жёлтого пса / Far from Home: The Adventures of Yellow Do [приключения, семейный, 1995] HDTVRip, Mvo

salma3

116 | 13

1.37 ГБ

В этой теме нет новых непрочитанных сообщений. Взлом / Home Invasion [Триллер, 2016] WEB-DL 1080p, Mvo [iTunes]

Dracon

160 | 7

3.28 ГБ

В этой теме нет новых непрочитанных сообщений. Из тьмы / Out of the Dark [Ужасы, триллер, 1989] WEB-DL 1080p, Avo

salma3

0 | 1

9.02 ГБ


Начать новую тему Ответить на тему  [ 1 сообщение ] 




Для Мосгорсуда, Роскомнадзора и рекламодателей:: mosgorsud-torrent[собачка]yandex.ru
cron