Торрент файл
скачать торрент магнет ссылка Добавлен: 27 май 2018, 21:15
Размер: 7.98 ГБ
Сидеров: 0
Личеров: 0
Статус: (salma3)
Автор

СообщениеДобавлено: 27 май 2018, 21:15 

Не в сети
Супермодератор
Аватара пользователя
Дата регистрации:
15 фев 2012, 16:44
Возраст: 28
Спасибо: 7203 / 2147
Сообщения: 65002
Год выхода: 1995
Жанр: Приключения, семейный
Режиссер: Филлип Борсос

В ролях: Мими Роджерс, Брюс Дэвисон, Джесси Брэдфорд, Том Бауэр, Джоэль Палмер, Джош Уонамейкер, Марго Финли, Мэттью Беннетт

О фильме:
Двенадцатилетний Ангас МакКормик находит беспризорного пса и берет его себе, дав кличку Желтый. А через несколько дней мальчик вместе с новым другом и отцом отправляется на катере в морское путешествие. Но начинается шторм, и огромная волна переворачивает катер. Отцу удается удержаться в лодке, а Ангаса с псом выбрасывает на берег. Одни одинешеньки среди дикой канадской тайги, мальчик и собака пытаются выжить и найти способ привлечь спасателей.



Страна: США
Продолжительность: 01:20:41
Перевод: Профессиональный многоголосый (1 канал)

Файл
Кодек: x264
Качество: WEB-DL 1080p
Видео: MPEG-4 AVC, 13.5 Мбит/с, 1920x1040
Звук #1: AC3, 2 ch, 192 Кбит/с | Rus
Звук #2: EAC3, 2 ch, 224 Кбит/с | Eng
Субтитры: Английские

Вполне заурядная история о мальчике и его псе. История их дружбы, верности, преданности, которые подверглись проверке. Ангас, мальчик нашедший пса, привязывается к своему четвероногому другу и не хочет с ним расставаться даже в длительной и опасной, ведь море всегда опасно, поездке. И не зря. Именно пес, этот верный четвероногий друг, оказался рядом в трудную минуту, поддерживал Ангаса, защищал его. Говорить о тяжести проживания в канадском лесу не стоит, и так понятно, что для двенадцатилетнего мальчика это невероятное испытание. Но знания, которые он получил от отца, помогали ему. В тот тяжелый моменты Ангас и Желтый были вместе, они были единым целым, что и позволяло им стойко переносить все невзгоды. Но для фильма мало одной трагедии — потери мальчика и его многодневных поисков. Надо было показать зрителю как можно любить пса. Именно как человек может переживать о нем. Эти чувства, которые испытывал мальчик, показывают, что не только собака может быть предана человеку, но и человек — собаке. Очень жаль, что сюжетная линия с отношением матери к собаке не была раскрыта, о ней лишь вскользь упоминается, но она не менее важна. Всегда интересно посмотреть как человек меняет свое мнение о чем-то и как потом может переживать за это. В фильме основная линия направлена лишь на Ангаса с Желтым, внимания его семье уделено меньше, но их эмоции не трудно себе представить. В общем эту картину интересно будет посмотреть всем, кто не равнодушен к животным, кто любит истории об отношениях собаки и хозяина.
Формат : Matroska
Версия формата : Version 2
Размер файла : 7,98 Гбайт
Продолжительность : 1 ч. 20 м.
Режим общего битрейта : Переменный
Общий поток : 14,2 Мбит/сек
Название фильма : Far.from.Home.The.Adventures.of.Yellow.Dog.1995.1080p.AMZN.WEB-DL.[ZGV]
Дата кодирования : UTC 2018-05-27 16:12:05
Программа кодирования : mkvmerge v5.8.0 ('No Sleep / Pillow') built on Sep 2 2012 15:37:04
Библиотека кодирования : libebml v1.2.3 + libmatroska v1.3.0
Attachements : cover.jpg

Видео
Идентификатор : 1
Формат : AVC
Формат/Информация : Advanced Video Codec
Профиль формата : [email protected]
Параметр CABAC формата : Да
Параметр ReFrames формата : 4 кадра
Идентификатор кодека : V_MPEG4/ISO/AVC
Продолжительность : 1 ч. 20 м.
Вид битрейта : Переменный
Битрейт : 13,5 Мбит/сек
Максимальный битрейт : 15,0 Мбит/сек
Ширина : 1920 пикселей
Высота : 1040 пикселей
Соотношение сторон : 1,85:1
Режим частоты кадров : Постоянный
Частота кадров : 23,976 кадра/сек
Цветовое пространство : YUV
Субдискретизация насыщенности : 4:2:0
Битовая глубина : 8 бит
Тип развёртки : Прогрессивная
Бит/(Пиксели*Кадры) : 0.281
Размер потока : 7,59 Гбайт (95%)
Заголовок : Far.from.Home.The.Adventures.of.Yellow.Dog.1995.1080p.AMZN.WEB-DL
Библиотека кодирования : x264 core 148 r2623 d5b2374
Настройки программы : cabac=1 / ref=4 / deblock=1:-1:-1 / analyse=0x3:0x133 / me=umh / subme=9 / psy=1 / psy_rd=1.00:0.15 / mixed_ref=1 / me_range=24 / chroma_me=1 / trellis=2 / 8x8dct=1 / cqm=0 / deadzone=21,11 / fast_pskip=1 / chroma_qp_offset=-3 / threads=32 / lookahead_threads=5 / sliced_threads=0 / nr=150 / decimate=1 / interlaced=0 / bluray_compat=0 / constrained_intra=0 / bframes=8 / b_pyramid=2 / b_adapt=2 / b_bias=0 / direct=3 / weightb=1 / open_gop=0 / weightp=2 / keyint=120 / keyint_min=61 / scenecut=0 / intra_refresh=0 / rc_lookahead=120 / rc=crf / mbtree=1 / crf=18.0 / qcomp=0.60 / qpmin=0 / qpmax=69 / qpstep=4 / vbv_maxrate=15000 / vbv_bufsize=31250 / crf_max=0.0 / nal_hrd=vbr / filler=0 / ip_ratio=1.40 / aq=3:1.00
Default : Да
Forced : Нет
Цветовой диапазон : Limited
Основные цвета : BT.709
Характеристики трансфера : BT.709
Коэффициенты матрицы : BT.709

Аудио #1
Идентификатор : 2
Формат : AC-3
Формат/Информация : Audio Coding 3
Расширение режима : CM (complete main)
Параметр Endianness формата : Big
Идентификатор кодека : A_AC3
Продолжительность : 1 ч. 20 м.
Вид битрейта : Постоянный
Битрейт : 192 Кбит/сек
Каналы : 2 канала
Расположение каналов : Front: L R
Частота : 48,0 КГц
Метод сжатия : С потерями
Задержка видео : 1 с. 175 мс.
Размер потока : 111 Мбайт (1%)
Язык : Russian
Default : Да
Forced : Нет

Аудио #2
Идентификатор : 3
Формат : E-AC-3
Формат/Информация : Audio Coding 3
Параметр Endianness формата : Big
Идентификатор кодека : A_EAC3
Продолжительность : 1 ч. 20 м.
Вид битрейта : Постоянный
Битрейт : 224 Кбит/сек
Каналы : 2 канала
Расположение каналов : Front: L R
Частота : 48,0 КГц
Метод сжатия : С потерями
Размер потока : 129 Мбайт (2%)
Язык : English
Default : Нет
Forced : Нет

Текст
Идентификатор : 4
Формат : UTF-8
Идентификатор кодека : S_TEXT/UTF8
Идентификатор кодека/Информация : UTF-8 Plain Text
Язык : English
Default : Нет
Forced : Нет



_________________
Проголосуй за трекер Открытый торрент трекер - RUS-MEDIA.ORG

Проголосуй Открытый торрент трекер - RUS-MEDIA.ORG


Вернуться к началу
 Профиль Отправить личное сообщение  
 
   Похожие торренты   Автор   Торрент   Размер 
В этой теме нет новых непрочитанных сообщений. Вдали от дома: Приключения жёлтого пса / Far from Home: The Adventures of Yellow Do [приключения, семейный, 1995] HDTVRip, Mvo

salma3

116 | 13

1.37 ГБ

В этой теме нет новых непрочитанных сообщений. Освободите Вилли 2: Новое приключение / Free Willy 2: The Adventure Home [драма, приключения, семейный, 1995] WEB-DL 720p, Mvo+Sub

salma3

13 | 33

3.24 ГБ

В этой теме нет новых непрочитанных сообщений. Вдали от дома / Far from Home [Триллер, 1989] WEB-DL 1080p, Mvo

salma3

0 | 0

8.27 ГБ

В этой теме нет новых непрочитанных сообщений. Приключения кота в сапогах / The Adventures of Puss in Boots [S03] [Мультсериал, комедия, приключения, семейный, 2016] WEBRip, Mvo [NewStudio]

salma3

105 | 32

3.02 ГБ

В этой теме нет новых непрочитанных сообщений. Приключения кота в сапогах / The Adventures of Puss in Boots [S02] [Мультсериал, комедия, приключения, семейный, 2016] WEBRip 720p, Mvo [NewStudio]

salma3

207 | 32

3.96 ГБ

В этой теме нет новых непрочитанных сообщений. Приключения кота в сапогах / The Adventures of Puss in Boots [01x01-15 из 15] (Даг Лэнгдэйл) [Мультсериал, комедия, приключения, семейный, 2015] WEBRip [NewStudio]

Dracon

914 | 329

4.32 ГБ

В этой теме нет новых непрочитанных сообщений. Приключения кота в сапогах / The Adventures of Puss in Boots [2 сезон: 1-11 серия из 11] [Мультсериал, комедия, приключения, семейный, 2016] WEBRip [NewStudio]

Dracon

180 | 47

3.22 ГБ


Начать новую тему Ответить на тему  [ 1 сообщение ] 




Для Мосгорсуда, Роскомнадзора и рекламодателей:: mosgorsud-torrent[собачка]yandex.ru
cron