Торрент файл
скачать торрент магнет ссылка Добавлен: 17 май 2018, 20:41
Размер: 2.67 ГБ
Сидеров: 0
Личеров: 1
Статус: (salma3)
Автор

СообщениеДобавлено: 17 май 2018, 20:41 

Не в сети
Супермодератор
Аватара пользователя
Дата регистрации:
15 фев 2012, 16:44
Возраст: 28
Спасибо: 7290 / 2147
Сообщения: 70823
Год выхода: 1969
Жанр: вестерн
Режиссер: Эндрю В. МакЛаглен / Andrew V. McLaglen

В ролях: Джон Уэйн, Рок Хадсон, Антонио Агиляр, Роман Гэбриел, Мэриэн МакКарго, Ли Меривезер, Мерлин Олсен, Мелисса Ньюман, Брюс Кэбот, Ян-Майкл Винсент

О фильме:
Гражданская война в США окончена. Бывший полковник армии Севера Джон Томас перегоняет большой табун лошадей в Мексику. В то же время бывший полковник южан Джеймс Лонгдон так же отправляется в Мексику — вместе со своей семьёй он хочет начать новую жизнь в чужой стране. Их пути пересекаются, когда они подвергаются нападению мексиканских головорезов. Теперь бывшие враги должны объединиться, чтобы общими усилиями противостоять банде преступников…



Выпущено: США
Продолжительность: 01:58:16
Перевод: Профессиональный (многоголосый, закадровый) SomeWax + Оригинальная звуковая дорожка
Субтитры: Русские, английские (полные, SDH)

Файл:
Качество: BDRip 720p
Видео: AVC/H.264, 1280x536, ~2850 Kbps
Аудио 1: Русский, AC3, 2 ch, 192 Kbps, 48.0 kHz
Аудио 2: Английский, AC3, 2 ch, 192 Kbps, 48.0 kHz
Общее
Уникальный идентификатор : 203246188234011344253187082136655485124 (0x98E7CAC0872D7848BBCA12DADAFFD8C4)
Полное имя : F:DownloadsНепобежденные. 1969. NNMCLUB.mkv
Формат : Matroska
Версия формата : Version 4 / Version 2
Размер файла : 2,67 Гбайт
Продолжительность : 1 ч. 58 м.
Общий поток : 3236 Кбит/сек
Дата кодирования : UTC 2018-04-30 03:42:28
Программа кодирования : mkvmerge v7.9.0 ('Birds') 64bit
Библиотека кодирования : libebml v1.3.1 + libmatroska v1.4.2
Видео
Идентификатор : 1
Формат : AVC
Формат/Информация : Advanced Video Codec
Профиль формата : [email protected]
Настройки формата : CABAC / 9 Ref Frames
Параметр CABAC формата : Да
Параметр RefFrames формата : 9 кадров
Идентификатор кодека : V_MPEG4/ISO/AVC
Продолжительность : 1 ч. 58 м.
Битрейт : 2850 Кбит/сек
Ширина : 1280 пикселей
Высота : 536 пикселей
Соотношение сторон : 2,40:1
Режим частоты кадров : Постоянный
Частота кадров : 23,976 (24000/1001) кадра/сек
Цветовое пространство : YUV
Субдискретизация насыщенности : 4:2:0
Битовая глубина : 8 бит
Тип развёртки : Прогрессивная
Бит/(Пиксели*Кадры) : 0.173
Размер потока : 2,35 Гбайт (88%)
Заголовок : The Undefeated
Библиотека кодирования : x264 core 146 r2538 121396c
Настройки программы : cabac=1 / ref=9 / deblock=1:-1:-1 / analyse=0x3:0x113 / me=umh / subme=10 / psy=1 / psy_rd=1.00:0.10 / mixed_ref=1 / me_range=32 / chroma_me=1 / trellis=2 / 8x8dct=1 / cqm=0 / deadzone=21,11 / fast_pskip=0 / chroma_qp_offset=-3 / threads=6 / lookahead_threads=1 / sliced_threads=0 / nr=0 / decimate=0 / interlaced=0 / bluray_compat=0 / constrained_intra=0 / bframes=7 / b_pyramid=2 / b_adapt=2 / b_bias=0 / direct=3 / weightb=1 / open_gop=0 / weightp=2 / keyint=250 / keyint_min=25 / scenecut=40 / intra_refresh=0 / rc_lookahead=60 / rc=2pass / mbtree=1 / bitrate=2850 / ratetol=1.0 / qcomp=0.60 / qpmin=0 / qpmax=69 / qpstep=4 / cplxblur=20.0 / qblur=0.5 / vbv_maxrate=14000 / vbv_bufsize=14000 / nal_hrd=none / filler=0 / ip_ratio=1.40 / aq=1:1.00
Язык : English
Default : Да
Forced : Нет
Аудио #1
Идентификатор : 2
Формат : AC-3
Формат/Информация : Audio Coding 3
Идентификатор кодека : A_AC3
Продолжительность : 1 ч. 58 м.
Вид битрейта : Постоянный
Битрейт : 192 Кбит/сек
Каналы : 2 канала
Расположение каналов : Front: L R
Частота : 48,0 КГц
Частота кадров : 31,250 кадров/сек (1536 SPF)
Битовая глубина : 16 бит
Метод сжатия : С потерями
Размер потока : 162 Мбайт (6%)
Заголовок : Многоголосый закадровый, SomeWax
Язык : Russian
ServiceKind : Complete Main
Default : Да
Forced : Нет
Аудио #2
Идентификатор : 3
Формат : AC-3
Формат/Информация : Audio Coding 3
Идентификатор кодека : A_AC3
Продолжительность : 1 ч. 58 м.
Вид битрейта : Постоянный
Битрейт : 192 Кбит/сек
Каналы : 2 канала
Расположение каналов : Front: L R
Частота : 48,0 КГц
Частота кадров : 31,250 кадров/сек (1536 SPF)
Битовая глубина : 16 бит
Метод сжатия : С потерями
Размер потока : 162 Мбайт (6%)
Заголовок : Оригинал
Язык : English
ServiceKind : Complete Main
Default : Нет
Forced : Нет
Текст #1
Идентификатор : 4
Формат : UTF-8
Идентификатор кодека : S_TEXT/UTF8
Идентификатор кодека/Информация : UTF-8 Plain Text
Продолжительность : 1 ч. 56 м.
Битрейт : 71 бит/сек
ElementCount : 913
Размер потока : 60,9 Кбайт (0%)
Заголовок : SRT
Язык : Russian
Default : Нет
Forced : Нет
Текст #2
Идентификатор : 5
Формат : UTF-8
Идентификатор кодека : S_TEXT/UTF8
Идентификатор кодека/Информация : UTF-8 Plain Text
Продолжительность : 1 ч. 56 м.
Битрейт : 47 бит/сек
ElementCount : 1037
Размер потока : 40,2 Кбайт (0%)
Заголовок : SRT
Язык : English
Default : Нет
Forced : Нет
Текст #3
Идентификатор : 6
Формат : UTF-8
Идентификатор кодека : S_TEXT/UTF8
Идентификатор кодека/Информация : UTF-8 Plain Text
Продолжительность : 1 ч. 56 м.
Битрейт : 47 бит/сек
ElementCount : 1078
Размер потока : 40,9 Кбайт (0%)
Заголовок : SDH
Язык : English
Default : Нет
Forced : Нет


_________________
Проголосуй за трекер Открытый торрент трекер - RUS-MEDIA.ORG

Проголосуй Открытый торрент трекер - RUS-MEDIA.ORG


Вернуться к началу
 Профиль Отправить личное сообщение  
 
   Похожие торренты   Автор   Торрент   Размер 
В этой теме нет новых непрочитанных сообщений. Сто винтовок / 100 Rifles [приключения, вестерн, военный, 1969] BDRip 720p, Mvo

salma3

61 | 20

5.34 ГБ

В этой теме нет новых непрочитанных сообщений. Веревка и Кольт / Une Corde, Un Colt [вестерн, 1969] BDRip 720p, Mvo

salma3

0 | 0

8.3 ГБ

В этой теме нет новых непрочитанных сообщений. Сто винтовок / 100 Rifles [приключения, вестерн, военный, 1969] BDRip, Mvo+Dvo

salma3

85 | 29

1.45 ГБ

В этой теме нет новых непрочитанных сообщений. Золото Маккенны / Mackenna's Gold [Вестерн, приключения, 1969] BDRip-AVC, Dub

salma3

28 | 0

2.18 ГБ

В этой теме нет новых непрочитанных сообщений. Сто винтовок / 100 Rifles [приключения, вестерн, военный, 1969] BDRip 1080p, Mvo

salma3

9 | 3

14.04 ГБ

В этой теме нет новых непрочитанных сообщений. Поддержите своего шерифа! / Support Your Local Sheriff! [комедия, вестерн, 1969] BDRip, Mvo+Dvo

salma3

22 | 14

1.59 ГБ

В этой теме нет новых непрочитанных сообщений. Золото Маккенны / Mackenna's Gold [мелодрама, вестерн, приключения, 1969] BDRip 1080p, Dub

salma3

66 | 21

11.59 ГБ


Начать новую тему Ответить на тему  [ 1 сообщение ] 




Для Мосгорсуда, Роскомнадзора и рекламодателей:: mosgorsud-torrent[собачка]yandex.ru
cron