Торрент файл
скачать торрент магнет ссылка Добавлен: 17 май 2018, 14:48
Размер: 27.31 ГБ
Сидеров: 0
Личеров: 0
Статус: (salma3)
Автор

СообщениеДобавлено: 17 май 2018, 14:48 

Не в сети
Супермодератор
Аватара пользователя
Дата регистрации:
15 фев 2012, 16:44
Возраст: 28
Спасибо: 7290 / 2147
Сообщения: 70823
Год выхода: 1987
Жанр: Драма, биография, история
Режиссер: Бернардо Бертолуччи

В ролях: Джон Лоун, Джоан Чен, Питер О`Тул, Ин Жочэн, Виктор Вонг, Деннис Дун, Рюити Сакамото, Мэгги Хань, Рик Янг, Вивиан Ву, Кэри-Хироюки Тагава, Джейд Го, Фумихико Икэда, Тао Ву, Гуанг Фэн, Элвин Райли III, Лиза Лу, Хидэо Такамацу, Хайме Тачибана, Бэзил Пао, Генри О, Кайгэ Чэнь, Донг Лианг, Константин Грегори, Ли Ю, Джан Ву, Ши Лианг, Шу Чен, Чжан Дасин, Жуйган цу, Йуан Джин, Акира Икута, Мэттью Спендер

О фильме:
Он был повелителем миллиарда человек. Ему было уготовано «десять тысяч лет счастья». Но мир древних традиций рухнул под напором века перемен... В 1908 году трехлетний Пу И, последний из династии, тысячи лет правившей «Поднебесной империей», был возведен на Трон Дракона. К императору-ребенку относятся как к божеству. Он может делать все, кроме одного - покидать пределы своего дворца. В Запретный город не долетают «ветры перемен», сотрясающие мир за его стенами. Но жизнь последнего императора Китая оказывается частью всей великой истории XX века.



Страна: Франция, Великобритания, Италия, Китай
Продолжительность: 03:38:34
Перевод: Профессиональный многоголосый (Cinema Prestige)

Файл
Кодек: x264
Качество: BDRip 1080p
Видео: MPEG-4 AVC, 16.0 Мбит/с, 1920x816
Звук #1: AC3, 6 ch, 384 Кбит/с | Rus
Звук #2: DTS, 6 ch, 1536 Кбит/с | Eng
Субтитры: Русские, английские


Формат : Matroska
Версия формата : Version 2
Размер файла : 27,3 Гбайт
Продолжительность : 3 ч. 38 м.
Общий поток : 17,9 Мбит/сек
Название фильма : The.Last.Emperor.1987.Extended.Cut.1080p.BluRay.[zzZGVvv]
Дата кодирования : UTC 2018-05-17 05:58:35
Программа кодирования : mkvmerge v5.8.0 ('No Sleep / Pillow') built on Sep 2 2012 15:37:04
Библиотека кодирования : libebml v1.2.3 + libmatroska v1.3.0
Attachements : cover.jpg

Видео
Идентификатор : 1
Формат : AVC
Формат/Информация : Advanced Video Codec
Профиль формата : [email protected]
Параметр CABAC формата : Да
Параметр ReFrames формата : 5 кадров
Идентификатор кодека : V_MPEG4/ISO/AVC
Продолжительность : 3 ч. 38 м.
Битрейт : 16,0 Мбит/сек
Ширина : 1920 пикселей
Высота : 816 пикселей
Соотношение сторон : 2,35:1
Режим частоты кадров : Постоянный
Частота кадров : 23,976 кадра/сек
Цветовое пространство : YUV
Субдискретизация насыщенности : 4:2:0
Битовая глубина : 8 бит
Тип развёртки : Прогрессивная
Бит/(Пиксели*Кадры) : 0.426
Размер потока : 23,9 Гбайт (87%)
Заголовок : The.Last.Emperor.1987.Extended.Cut.1080p.BluRay
Библиотека кодирования : x264 core 148 r2744+55 950084e t_mod_Custom [[email protected] X86_64]
Настройки программы : cabac=1 / ref=5 / deblock=1:-3:-3 / analyse=0x3:0x133 / me=umh / subme=10 / psy=1 / fade_compensate=0.00 / psy_rd=1.10:0.05 / mixed_ref=1 / me_range=32 / chroma_me=1 / trellis=2 / 8x8dct=1 / cqm=0 / deadzone=21,11 / fast_pskip=1 / chroma_qp_offset=-3 / threads=6 / lookahead_threads=1 / sliced_threads=0 / nr=0 / decimate=1 / interlaced=0 / bluray_compat=0 / constrained_intra=0 / fgo=0 / bframes=8 / b_pyramid=2 / b_adapt=2 / b_bias=0 / direct=3 / weightb=1 / open_gop=0 / weightp=2 / keyint=250 / keyint_min=23 / scenecut=40 / intra_refresh=0 / rc=2pass / mbtree=0 / bitrate=16000 / ratetol=1.0 / qcomp=0.60 / qpmin=0:0:0 / qpmax=69:69:69 / qpstep=4 / cplxblur=20.0 / qblur=0.5 / ip_ratio=1.30 / pb_ratio=1.20 / aq=3:0.65 / aq-sensitivity=10.00 / aq-factor=1.00:1.00:1.00 / aq2=0 / aq3=0
Язык : English
Default : Да
Forced : Нет
Цветовой диапазон : Limited
Коэффициенты матрицы : BT.709

Аудио #1
Идентификатор : 2
Формат : AC-3
Формат/Информация : Audio Coding 3
Расширение режима : CM (complete main)
Параметр Endianness формата : Big
Режим смешивания : Header stripping
Идентификатор кодека : A_AC3
Продолжительность : 3 ч. 38 м.
Вид битрейта : Постоянный
Битрейт : 384 Кбит/сек
Каналы : 6 каналов
Расположение каналов : Front: L C R, Side: L R, LFE
Частота : 48,0 КГц
Метод сжатия : С потерями
Размер потока : 600 Мбайт (2%)
Заголовок : MVO (Cinema Prestige)
Язык : Russian
Default : Да
Forced : Нет

Аудио #2
Идентификатор : 3
Формат : DTS
Формат/Информация : Digital Theater Systems
Режим : 16
Параметр Endianness формата : Big
Режим смешивания : Header stripping
Идентификатор кодека : A_DTS
Продолжительность : 3 ч. 38 м.
Вид битрейта : Постоянный
Битрейт : 1509 Кбит/сек
Каналы : 6 каналов
Расположение каналов : Front: L C R, Side: L R, LFE
Частота : 48,0 КГц
Битовая глубина : 24 бит
Метод сжатия : С потерями
Размер потока : 2,30 Гбайт (8%)
Заголовок : Original
Язык : English
Default : Нет
Forced : Нет

Текст #1
Идентификатор : 4
Формат : UTF-8
Идентификатор кодека : S_TEXT/UTF8
Идентификатор кодека/Информация : UTF-8 Plain Text
Язык : Russian
Default : Нет
Forced : Нет

Текст #2
Идентификатор : 5
Формат : UTF-8
Идентификатор кодека : S_TEXT/UTF8
Идентификатор кодека/Информация : UTF-8 Plain Text
Язык : English
Default : Нет
Forced : Нет

Меню
00:00:00.000 : en:00:00:00.000
00:09:58.346 : en:00:09:58.346
00:20:07.623 : en:00:20:07.623
00:28:58.111 : en:00:28:58.111
00:40:21.753 : en:00:40:21.753
00:51:57.989 : en:00:51:57.989
01:01:13.420 : en:01:01:13.420
01:06:10.507 : en:01:06:10.507
01:13:23.858 : en:01:13:23.858
01:26:49.412 : en:01:26:49.412
01:41:10.814 : en:01:41:10.814
01:49:21.764 : en:01:49:21.764
01:57:35.046 : en:01:57:35.046
02:05:32.149 : en:02:05:32.149
02:12:52.087 : en:02:12:52.087
02:22:19.197 : en:02:22:19.197
02:30:05.663 : en:02:30:05.663
02:36:53.068 : en:02:36:53.068
02:46:19.761 : en:02:46:19.761
02:55:52.290 : en:02:55:52.290
03:07:08.843 : en:03:07:08.843
03:18:44.828 : en:03:18:44.828
03:22:46.444 : en:03:22:46.444
03:34:10.171 : en:03:34:10.171


_________________
Проголосуй за трекер Открытый торрент трекер - RUS-MEDIA.ORG

Проголосуй Открытый торрент трекер - RUS-MEDIA.ORG


Вернуться к началу
 Профиль Отправить личное сообщение  
 
   Похожие торренты   Автор   Торрент   Размер 
В этой теме нет новых непрочитанных сообщений. Белоснежка и Охотник 2 [Расширенная версия] / The Huntsman: Winter's War [2016, фэнтези, боевик, приключения, BDRip, Avo [Гаврилов] [Расширенная версия]

salma3

61 | 15

1.46 ГБ

В этой теме нет новых непрочитанных сообщений. Орел Девятого легиона / The Eagle [Драма, история, экранизация, 2011] BDRemux 1080p, Dub [Расширенная версия]

salma3

0 | 0

24.31 ГБ

В этой теме нет новых непрочитанных сообщений. Александр / Alexander [Боевик, биография, история, 2004] BDRip 1080p, Dub [Театральная версия]

salma3

0 | 0

7.63 ГБ

В этой теме нет новых непрочитанных сообщений. Плoxoй Caнтa 2 / Ваd Sаntа 2 [драма, комедия, криминал, 2016] BDRip 1080p, Dub+Avo [Расширенная версия]

salma3

33 | 14

8.16 ГБ

В этой теме нет новых непрочитанных сообщений. Охота на воров / Den of Thieves [Боевик, триллер, драма, 2018] BDRip 1080p, Dub [Лицензия] [Расширенная версия]

salma3

3 | 3

11.91 ГБ

В этой теме нет новых непрочитанных сообщений. Комната разочарований / The Disappointments Room [ужасы, триллер, драма, 2016] BDRip 1080p, Mvo [Расширенная версия]

salma3

202 | 73

7.08 ГБ

В этой теме нет новых непрочитанных сообщений. Плохой Санта 2 / Bad Santa 2 (драма, комедия, криминал, 2016) BDRip 1080p | Расширенная версия | iTunes, А

marya111

620 | 143

8.16 ГБ


Начать новую тему Ответить на тему  [ 1 сообщение ] 




Для Мосгорсуда, Роскомнадзора и рекламодателей:: mosgorsud-torrent[собачка]yandex.ru
cron