Торрент файл
скачать торрент магнет ссылка Добавлен: 17 май 2018, 11:21
Размер: 7.44 ГБ
Сидеров: 57
Личеров: 28
Статус: (salma3)
Автор

СообщениеДобавлено: 17 май 2018, 11:21 

В сети
Супермодератор
Аватара пользователя
Дата регистрации:
15 фев 2012, 16:44
Возраст: 28
Спасибо: 7165 / 2147
Сообщения: 62265
Год выхода: 2017
Произведено: Япония
Жанр: драма, детектив, криминал
Режиссер: Хирокадзу Корээда

В главных ролях: Масахару Фукуяма, Кодзи Якусё, Синносукэ Мицусима, Микако Итикава, Идзуми Мацуока, Исао Хасидзумэ, Судзу Хиросэ, Хадзимэ Иноэ, Адзю Макита, Итиро Огура

О фильме: Совершено дерзкое убийство. Злодей схвачен и предстает перед судом. 30 лет назад этот человек по имени Мисуми уже совершал аналогичное преступление, и теперь ему грозит смертная казнь. Защищать обвиняемого берутся адвокаты во главе с молодым юристом Сигэмори. Несмотря на то, что его клиент признал свою вину, Сигэмори пытается найти смягчающие обстоятельства. Чем глубже он проникает в суть дела, тем более противоречивым оно становится. Показания жены и дочери убитого полны недомолвок, тогда как общение с подзащитным заставляет Сигэмори испытывать к нему странную, почти мистическую симпатию. Постепенно он все больше проникается мыслью, что Мисуми никакой не убийца.



Файл
Качество: HDRip 1080p
Видео данные: MKV, 1920x810 (2.40:1), 23.976 fps, 8312 Кбит/с
Аудио данные: AAC, 2 ch, 192 Кбит/с
Перевод: Любительский многоголосый (GreenРай Studio)
Продолжительность: 02:05:14

имеется реклама

General
Unique ID : 220573302556463064724684126642391386959 (0xA5F0DF71F4DB6C4F5AFFEEA31AEE8B4F)
Complete name : D:ГРИНРАЙSandome.no.satsujin.2017.P.BDRip.1080p.mkv
Format : Matroska
Format version : Version 4 / Version 2
File size : 7.44 GiB
Duration : 2 h 5 min
Overall bit rate : 8 505 kb/s
Encoded date : UTC 2018-05-16 16:09:44
Writing application : mkvmerge v21.0.0 ('Tardigrades Will Inherit The Earth') 64-bit
Writing library : libebml v1.3.5 + libmatroska v1.4.8
Video
ID : 1
Format : AVC
Format/Info : Advanced Video Codec
Format profile : [email protected]
Format settings : CABAC / 1 Ref Frames
Format settings, CABAC : Yes
Format settings, RefFrames : 1 frame
Format settings, GOP : M=1, N=30
Codec ID : V_MPEG4/ISO/AVC
Duration : 2 h 5 min
Bit rate : 8 312 kb/s
Width : 1 920 pixels
Height : 810 pixels
Display aspect ratio : 2.40:1
Frame rate mode : Constant
Frame rate : 23.976 (24000/1001) FPS
Color space : YUV
Chroma subsampling : 4:2:0
Bit depth : 8 bits
Scan type : Progressive
Bits/(Pixel*Frame) : 0.223
Stream size : 7.27 GiB (98%)
Language : English
Default : Yes
Forced : No
Audio
ID : 2
Format : AAC
Format/Info : Advanced Audio Codec
Format profile : LC
Codec ID : A_AAC-2
Duration : 2 h 5 min
Bit rate : 192 kb/s
Channel(s) : 2 channels
Channel positions : Front: L R
Sampling rate : 48.0 kHz
Frame rate : 46.875 FPS (1024 SPF)
Compression mode : Lossy
Stream size : 170 MiB (2%)
Language : English
Default : Yes
Forced : No

Релиз от:


_________________
Проголосуй за трекер Открытый торрент трекер - RUS-MEDIA.ORG

Проголосуй Открытый торрент трекер - RUS-MEDIA.ORG


Вернуться к началу
 Профиль Отправить личное сообщение  
 
   Похожие торренты   Автор   Торрент   Размер 
В этой теме нет новых непрочитанных сообщений. Третье убийство / Sandome no satsujin [драма, детектив, криминал, 2017] HDRip, Mvo [GreenРай Studio]

salma3

319 | 77

1.37 ГБ

В этой теме нет новых непрочитанных сообщений. Третье убийство / Sandome no satsujin [драма, детектив, криминал, 2017] HDRip 720p, Mvo [GreenРай Studio]

salma3

0 | 3

3.09 ГБ

В этой теме нет новых непрочитанных сообщений. Детектив / Thupparivaalan [Боевик, триллер, криминал, 2017] HDRip, Mvo [GreenРай Studio]

salma3

5 | 10

2.05 ГБ

В этой теме нет новых непрочитанных сообщений. Детектив / Thupparivaalan [Боевик, триллер, криминал, 2017] HDRip 720p, Mvo [GreenРай Studio]

salma3

2 | 6

4.67 ГБ

В этой теме нет новых непрочитанных сообщений. Край / Kuang shou [боевик, криминал, 2017] HDRip 1080p, Mvo [GreenРай Studio]

salma3

33 | 42

7.27 ГБ

В этой теме нет новых непрочитанных сообщений. Игра Кауфмана / Kaufman's Game [триллер, криминал, 2017] HDRip 1080p, Mvo [GreenРай Studio]

salma3

0 | 73

4.74 ГБ

В этой теме нет новых непрочитанных сообщений. Детектив Джагга / Jagga Jasoos [мюзикл, боевик, комедия, 2017] HDRip 1080p, Mvo [GreenРай Studio]

salma3

0 | 9

11.29 ГБ


Начать новую тему Ответить на тему  [ 1 сообщение ] 




Для Мосгорсуда, Роскомнадзора и рекламодателей:: mosgorsud-torrent[собачка]yandex.ru
cron