Торрент файл
скачать торрент магнет ссылка Добавлен: 17 май 2018, 11:17
Размер: 22.6 ГБ
Сидеров: 48
Личеров: 59
Статус: (salma3)
Автор

СообщениеДобавлено: 17 май 2018, 11:17 

Не в сети
Супермодератор
Аватара пользователя
Дата регистрации:
15 фев 2012, 16:44
Возраст: 28
Спасибо: 7290 / 2147
Сообщения: 70823
Год выхода: 2017
Жанр: Комедия
Режиссер: Бора Дагтекин

В ролях: Элиас ЭмБарек, Катя Риман, Йелла Хаазе, Сандра Хюллер, Макс фон Гробен, Уши Глас, Гизем Эмре, Арам Арами, Лукас Райбер, Руна Грайнер

О фильме:
Классному руководителю Зэку Мюллеру достался класс с самыми трудными подростками в Германии. Не проходит и дня, чтобы эти молодые отпрыски чего-нибудь не отмочили. Если бы не криминальное прошлое Зэка, ему бы ни за что с ними не управиться. Но этот год обещает быть особенным. На носу итоговые экзамены, а никто из учеников ни в зуб ногой в материале. А все потому, что накануне с ними побеседовал школьный специалист по профориентации и окончательно отбил у ребят охоту хоть что-то делать. Сумеет ли Зэки помочь ребятам найти мотивацию и вернуть веру в себя?



Страна: Германия
Продолжительность: 01:59:31
Перевод: Дублированный | iTunes

Файл
Качество: BDRemux 1080p
Формат: MKV
Кодек: MPEG-4 AVC
Видео: 1920x1080 (16:9), 24 fps, MPEG-4 AVC ~ 24.6 Mbps avg, 0.494 bit/pixel
Аудио: AC3, 48 kHz, 6 ch, ~384.00 kbps avg | русский | iTunes
Аудио: DTS-HRA, 48 kHz, 6 ch, ~2046.00 kbps avg | немецкий | Оригинал
Субтитры: Английские, Немецкие

Семпл

Общее
Уникальный идентификатор : 186130678186014636397512860185278938651 (0x8C0776F488120D8E814160279491FE1B)
Полное имя : FACK_JU_GOEHTE.3.2017.1080p.BluRay.Remux.mkv
Формат : Matroska
Версия формата : Version 4 / Version 2
Размер файла : 22,6 Гбайт
Продолжительность : 1 ч. 59 м.
Режим общего битрейта : Переменный
Общий поток : 27,1 Мбит/сек
Дата кодирования : UTC 2018-05-17 00:50:48
Программа кодирования : mkvmerge v9.7.1 ('Pandemonium') 64bit
Библиотека кодирования : libebml v1.3.4 + libmatroska v1.4.5
Видео
Идентификатор : 1
Формат : AVC
Формат/Информация : Advanced Video Codec
Профиль формата : [email protected]
Настройки формата : CABAC / 4 Ref Frames
Параметр CABAC формата : Да
Параметр ReFrames формата : 4 кадра
Идентификатор кодека : V_MPEG4/ISO/AVC
Продолжительность : 1 ч. 59 м.
Вид битрейта : Переменный
Битрейт : 24,6 Мбит/сек
Максимальный битрейт : 35,0 Мбит/сек
Ширина : 1920 пикселей
Высота : 1080 пикселей
Соотношение сторон : 16:9
Режим частоты кадров : Постоянный
Частота кадров : 24,000 кадра/сек
Цветовое пространство : YUV
Субдискретизация насыщенности : 4:2:0
Битовая глубина : 8 бит
Тип развёртки : Прогрессивная
Бит/(Пиксели*Кадры) : 0.494
Размер потока : 20,5 Гбайт (91%)
Язык : German
Default : Да
Forced : Нет
Аудио #1
Идентификатор : 2
Формат : AC-3
Формат/Информация : Audio Coding 3
Идентификатор кодека : A_AC3
Продолжительность : 1 ч. 59 м.
Вид битрейта : Постоянный
Битрейт : 384 Кбит/сек
Каналы : 6 каналов
Расположение каналов : Front: L C R, Side: L R, LFE
Частота : 48,0 КГц
Частота кадров : 31,250 кадров/сек (1536 SPF)
Битовая глубина : 16 бит
Метод сжатия : С потерями
Размер потока : 328 Мбайт (1%)
Заголовок : iTunes
Язык : Russian
Default : Да
Forced : Нет
Аудио #2
Идентификатор : 3
Формат : DTS
Формат/Информация : Digital Theater Systems
Профиль формата : HRA / Core
Идентификатор кодека : A_DTS
Продолжительность : 1 ч. 59 м.
Вид битрейта : Постоянный
Битрейт : 2046 Кбит/сек / 1509 Кбит/сек
Каналы : 6 каналов
Расположение каналов : Front: L C R, Side: L R, LFE
Частота : 48,0 КГц
Частота кадров : 93,750 кадра/сек (512 SPF)
Битовая глубина : 24 бит
Метод сжатия : С потерями
Размер потока : 1,71 Гбайт (8%)
Язык : German
Default : Нет
Forced : Нет
Текст #1
Идентификатор : 4
Формат : PGS
Режим смешивания : zlib
Идентификатор кодека : S_HDMV/PGS
Идентификатор кодека/Информация : Picture based subtitle format used on BDs/HD-DVDs
Продолжительность : 1 ч. 58 м.
Битрейт : 17,1 Кбит/сек
ElementCount : 3230
Размер потока : 14,5 Мбайт (0%)
Язык : English
Default : Нет
Forced : Нет
Текст #2
Идентификатор : 5
Формат : PGS
Режим смешивания : zlib
Идентификатор кодека : S_HDMV/PGS
Идентификатор кодека/Информация : Picture based subtitle format used on BDs/HD-DVDs
Продолжительность : 1 ч. 59 м.
Битрейт : 21,1 Кбит/сек
ElementCount : 4020
Размер потока : 18,0 Мбайт (0%)
Язык : German
Default : Нет
Forced : Нет
Меню
00:00:00.000 : en:00:00:00.000
00:06:36.708 : en:00:06:36.708
00:13:36.208 : en:00:13:36.208
00:20:23.500 : en:00:20:23.500
00:26:20.625 : en:00:26:20.625
00:34:28.083 : en:00:34:28.083
00:41:55.042 : en:00:41:55.042
00:48:43.333 : en:00:48:43.333
00:53:18.625 : en:00:53:18.625
00:56:49.083 : en:00:56:49.083
01:03:32.417 : en:01:03:32.417
01:06:54.417 : en:01:06:54.417
01:15:22.208 : en:01:15:22.208
01:22:21.042 : en:01:22:21.042
01:28:53.750 : en:01:28:53.750
01:35:47.458 : en:01:35:47.458
01:41:42.292 : en:01:41:42.292
01:49:58.750 : en:01:49:58.750


_________________
Проголосуй за трекер Открытый торрент трекер - RUS-MEDIA.ORG

Проголосуй Открытый торрент трекер - RUS-MEDIA.ORG


Вернуться к началу
 Профиль Отправить личное сообщение  
 
   Похожие торренты   Автор   Торрент   Размер 
В этой теме нет новых непрочитанных сообщений. Зачётный препод 3 / Fack ju Göhte 3 [Комедия, 2017] BDRip 1080p, Dub [iTunes]

salma3

0 | 0

13.23 ГБ

В этой теме нет новых непрочитанных сообщений. Зачётный препод 3 / Fack ju Göhte 3 [Комедия, 2017] BDRip, Dub [iTunes]

salma3

3086 | 690

1.41 ГБ

В этой теме нет новых непрочитанных сообщений. Зачётный препод 3 / Fack ju Göhte 3 [Комедия, 2017] BDRip, Dub [iTunes]

salma3

552 | 177

2.13 ГБ

В этой теме нет новых непрочитанных сообщений. Зачётный препод 3 / Fack ju Göhte 3 [Комедия, 2017] BDRip 720p, Dub [iTunes]

salma3

0 | 0

6.53 ГБ

В этой теме нет новых непрочитанных сообщений. Зачётный препод 2 / Fack ju Gohte 2 (Бора Дагтекин) [2015, комедия, HDRip] Dub

Nickolas3435

696 | 37

2.06 ГБ

В этой теме нет новых непрочитанных сообщений. Зачётный препод 2 / Fack ju Gohte 2 (Бора Дагтекин) [2015, комедия, HDRip] Dub

Nickolas3435

4433 | 245

1.37 ГБ

В этой теме нет новых непрочитанных сообщений. Видели ночь / All Nighter [Комедия, 2017] BDRemux 1080p, Dub [iTunes]

salma3

19 | 6

21.08 ГБ


Начать новую тему Ответить на тему  [ 1 сообщение ] 




Для Мосгорсуда, Роскомнадзора и рекламодателей:: mosgorsud-torrent[собачка]yandex.ru
cron