Торрент файл
скачать торрент магнет ссылка Добавлен: 17 май 2018, 11:15
Размер: 2.17 ГБ
Сидеров: 96
Личеров: 28
Статус: (salma3)
Автор

СообщениеДобавлено: 17 май 2018, 11:15 

Не в сети
Супермодератор
Аватара пользователя
Дата регистрации:
15 фев 2012, 16:44
Возраст: 28
Спасибо: 7290 / 2147
Сообщения: 70823
Произведено: США
Жанр: ужасы
Режиссер: Брайан Койн

В главных ролях: Бриа Грант, Грэхэм Скиппер, Андреа Коллинз, Алисия Лурим, Ханна Причард, Даниэль Реверман

О фильме: Маленький городок в США, все люди готовятся к Хэллоуину. Новоселы Элла и Роберт разбирают коробки после переезда и вырезают тыкву. Ничто не предвещает ужасных событий, когда две девочки-подростка надевают маски и начинают убивать всех подряд, начиная с директора школы. Как говорится, в каждом стаде есть паршивая овца...



Файл
Качество: WEBRip 720p
Видео данные: MKV, 1280x720 (16:9), 23.976 fps, 3425 Кбит/с
Аудио данные: AAC, 2 ch, 192 Кбит/с
Перевод: Любительский многоголосый (GreenРай Studio)
Продолжительность: 01:26:02

имеется реклама

General
Unique ID : 334643438048262306787713385483284892123 (0xFBC1FB5770BCC86D71E7DB86B8C9C9DB)
Complete name : D:ГРИНРАЙBad.Apples.2017.P.WEB.DL.720p.mkv
Format : Matroska
Format version : Version 4 / Version 2
File size : 2.17 GiB
Duration : 1 h 26 min
Overall bit rate : 3 617 kb/s
Encoded date : UTC 2018-05-16 12:16:49
Writing application : mkvmerge v21.0.0 ('Tardigrades Will Inherit The Earth') 64-bit
Writing library : libebml v1.3.5 + libmatroska v1.4.8
Video
ID : 1
Format : AVC
Format/Info : Advanced Video Codec
Format profile : [email protected]
Format settings : CABAC / 1 Ref Frames
Format settings, CABAC : Yes
Format settings, RefFrames : 1 frame
Format settings, GOP : M=1, N=30
Codec ID : V_MPEG4/ISO/AVC
Duration : 1 h 26 min
Bit rate : 3 425 kb/s
Width : 1 280 pixels
Height : 720 pixels
Display aspect ratio : 16:9
Frame rate mode : Constant
Frame rate : 23.976 (24000/1001) FPS
Color space : YUV
Chroma subsampling : 4:2:0
Bit depth : 8 bits
Scan type : Progressive
Bits/(Pixel*Frame) : 0.155
Stream size : 2.06 GiB (95%)
Language : English
Default : Yes
Forced : No
Audio
ID : 2
Format : AAC
Format/Info : Advanced Audio Codec
Format profile : LC
Codec ID : A_AAC-2
Duration : 1 h 26 min
Bit rate : 192 kb/s
Channel(s) : 2 channels
Channel positions : Front: L R
Sampling rate : 48.0 kHz
Frame rate : 46.875 FPS (1024 SPF)
Compression mode : Lossy
Stream size : 117 MiB (5%)
Language : English
Default : Yes
Forced : No


Релиз от:


_________________
Проголосуй за трекер Открытый торрент трекер - RUS-MEDIA.ORG

Проголосуй Открытый торрент трекер - RUS-MEDIA.ORG


Вернуться к началу
 Профиль Отправить личное сообщение  
 
   Похожие торренты   Автор   Торрент   Размер 
В этой теме нет новых непрочитанных сообщений. Паршивые овцы / Bad Apples [ужасы, 2018] WEBRip, Mvo [GreenРай Studio]

salma3

93 | 28

1.31 ГБ

В этой теме нет новых непрочитанных сообщений. Первобытная ярость: Легенда О-Ма / Primal Rage: The Legend of Oh-Mah [ужасы, 2018] WEBRip 720p, Mvo [GreenРай Studio]

salma3

0 | 0

2.7 ГБ

В этой теме нет новых непрочитанных сообщений. Убежище страха / Asylum of Fear [Ужасы, триллер, детектив, 2018] WEBRip 720p, Mvo [GreenРай Studio]

salma3

7 | 6

2.05 ГБ

В этой теме нет новых непрочитанных сообщений. Храм / Temple [ужасы, триллер, 2017] WEBRip 720p, Mvo [GreenРай Studio]

salma3

0 | 0

1.73 ГБ

В этой теме нет новых непрочитанных сообщений. Голодные Z / Les affames [ужасы, драма, 2017] WEBRip 720p, Mvo [GreenРай Studio]

salma3

1 | 1

2.91 ГБ

В этой теме нет новых непрочитанных сообщений. Сандо / Sando [S01] [Комедия, 2018] WEBRip 720p, Mvo [GreenРай Studio]

salma3

0 | 1

4.19 ГБ

В этой теме нет новых непрочитанных сообщений. Дарк / Darc [триллер, 2018] WEBRip 720p, Mvo [GreenРай Studio]

salma3

27 | 39

2.29 ГБ


Начать новую тему Ответить на тему  [ 1 сообщение ] 




Для Мосгорсуда, Роскомнадзора и рекламодателей:: mosgorsud-torrent[собачка]yandex.ru
cron