Торрент файл
скачать торрент магнет ссылка Добавлен: 17 май 2018, 03:26
Размер: 2.17 ГБ
Сидеров: 473
Личеров: 19
Статус: (salma3)
Автор

СообщениеДобавлено: 17 май 2018, 03:26 

Не в сети
Супермодератор
Аватара пользователя
Дата регистрации:
15 фев 2012, 16:44
Возраст: 28
Спасибо: 7290 / 2147
Сообщения: 70823
Год выпуска: 2018
Жанр: Комедия
Режиссер: Роберт Шмигель

В ролях: Джош Райнер, Адам Сэндлер, Стив Бушеми, Рэйчел Дрэч, Крис Рок, Скотт Коэн, Патриция Белчер, Делани Уилер, Роб Морган

О фильме:
История о двух отцах, чьи дети решили пожениться. За неделю до события будущие родственники объединяют усилия, чтобы сделать финальные приготовления.




Страна: США
Продолжительность: 01:56:43
Перевод: Профессиональный (многоголосый, закадровый) NewStudio

Файл
Формат: AVI
Качество: WEBRip
Видео: XviD, 720x384, 23.976 fps, 2264 kbps
Звук: AC3, 6 ch, 384 kbps

Общее
Полное имя : D:ЗаготовкиThe.Week.Of.2018.NF.WEBRip.NS.avi
Формат : AVI
Формат/Информация : Audio Video Interleave
Размер файла : 2,17 Гбайт
Продолжительность : 1 ч. 56 м.
Общий поток : 2657 Кбит/сек
Программа кодирования : VirtualDubMod 1.5.10.3 | http://www.virtualdub-fr.org || (build 2550/release)
Библиотека кодирования : VirtualDubMod build 2550/release
Видео
Идентификатор : 0
Формат : MPEG-4 Visual
Профиль формата : Advanced [email protected]
Настройки формата : BVOP1 / Custom Matrix
Параметр BVOP формата : 1
Параметр QPel формата : Нет
Параметр GMC формата : Без точки перехода
Параметр матрицы формата : Выборочная
Идентификатор кодека : XVID
Идентификатор кодека/Подсказка : XviD
Продолжительность : 1 ч. 56 м.
Битрейт : 2264 Кбит/сек
Ширина : 720 пикселей
Высота : 384 пикселя
Соотношение сторон : 1,85:1
Частота кадров : 23,976 (24000/1001) кадра/сек
Цветовое пространство : YUV
Субдискретизация насыщенности : 4:2:0
Битовая глубина : 8 бит
Тип развёртки : Прогрессивная
Метод сжатия : С потерями
Бит/(Пиксели*Кадры) : 0.341
Размер потока : 1,85 Гбайт (85%)
Библиотека кодирования : XviD 73
Аудио
Идентификатор : 1
Формат : AC-3
Формат/Информация : Audio Coding 3
Идентификатор кодека : 2000
Продолжительность : 1 ч. 56 м.
Вид битрейта : Постоянный
Битрейт : 384 Кбит/сек
Каналы : 6 каналов
Расположение каналов : Front: L C R, Side: L R, LFE
Частота : 48,0 КГц
Частота кадров : 31,250 кадров/сек (1536 SPF)
Битовая глубина : 16 бит
Метод сжатия : С потерями
Размер потока : 321 Мбайт (14%)
Выравнивание : Разделение по промежуткам
Продолжительность промежутка : 42 мс. (1,00 видеокадр)
Время предзагрузки промежутка : 500 мс.


_________________
Проголосуй за трекер Открытый торрент трекер - RUS-MEDIA.ORG

Проголосуй Открытый торрент трекер - RUS-MEDIA.ORG


Вернуться к началу
 Профиль Отправить личное сообщение  
 
   Похожие торренты   Автор   Торрент   Размер 
В этой теме нет новых непрочитанных сообщений. Неделя до... / The Week Of [Комедия, 2018] WEBRip 1080p, Mvo

salma3

139 | 177

15 ГБ

В этой теме нет новых непрочитанных сообщений. Неделя до... / The Week Of [Комедия, 2018] WEBRip, Mvo [Jaskier]

salma3

0 | 0

2.17 ГБ

В этой теме нет новых непрочитанных сообщений. Неделя до... / The Week Of [Комедия, 2018] WEBRip 720p, Mvo [Jaskier]

salma3

0 | 0

6.88 ГБ

В этой теме нет новых непрочитанных сообщений. Неделя до... / The Week Of [Комедия, 2018] WEBDLRip, Mvo

salma3

201 | 66

1.45 ГБ

В этой теме нет новых непрочитанных сообщений. Развод / Divorce [S02] [Комедия, 2018] WEBRip, Mvo [NewStudio]

salma3

0 | 0

2.74 ГБ

В этой теме нет новых непрочитанных сообщений. Развод / Divorce [S02] [Комедия, 2018] WEBRip 720p, Mvo [NewStudio]

salma3

0 | 0

7.28 ГБ

В этой теме нет новых непрочитанных сообщений. Блеск / GLOW [S02] [драма, комедия, спорт, 2018] WEBRip 720p, Mvo [NewStudio]

salma3

0 | 0

9.74 ГБ


Начать новую тему Ответить на тему  [ 1 сообщение ] 




Для Мосгорсуда, Роскомнадзора и рекламодателей:: mosgorsud-torrent[собачка]yandex.ru
cron